<?xml version="1.0" standalone="no"?>
<!DOCTYPE svg PUBLIC "-//W3C//DTD SVG 1.1//EN" "http://www.w3.org/Graphics/SVG/1.1/DTD/svg11.dtd" >
<svg xmlns="http://www.w3.org/2000/svg">
<metadata>Generated by IcoMoon</metadata>
<defs>
<font id="icomoon" horiz-adv-x="1024">
<font-face units-per-em="1024" ascent="960" descent="-64" />
<missing-glyph horiz-adv-x="1024" />
<glyph unicode="&#x20;" horiz-adv-x="512" d="" />
<glyph unicode="&#xe900;" d="M492.373 55.893l-145.92 219.307c-7.808 11.571-12.464 25.828-12.464 41.173s4.656 29.603 12.631 41.438l-0.168-0.264 141.227 213.333c1.82 2.841 2.902 6.308 2.902 10.027s-1.081 7.185-2.947 10.102l0.045-0.075-103.68 151.467c-6.397 9.584-10.208 21.368-10.208 34.042 0 21.261 10.725 40.018 27.060 51.154l0.214 0.138 42.667 28.587c9.584 6.397 21.368 10.208 34.042 10.208 21.261 0 40.018-10.725 51.154-27.060l0.138-0.214 148.48-220.587c7.808-11.571 12.464-25.828 12.464-41.173s-4.656-29.603-12.631-41.438l0.168 0.264-141.227-213.333c-1.82-2.841-2.902-6.308-2.902-10.027s1.081-7.185 2.947-10.102l-0.045 0.075 103.68-149.333c6.397-9.584 10.208-21.368 10.208-34.042 0-21.261-10.725-40.018-27.060-51.154l-0.214-0.138-42.667-28.587c-10.030-7.304-22.596-11.686-36.185-11.686-21.525 0-40.483 10.993-51.565 27.671l-0.142 0.228z" />
<glyph unicode="&#xe901;" d="M531.627 840.107c-11.274 16.549-30.030 27.274-51.292 27.274-12.674 0-24.458-3.811-34.268-10.35l0.226 0.142-42.667-28.587c-16.549-11.274-27.274-30.030-27.274-51.292 0-12.674 3.811-24.458 10.35-34.268l-0.142 0.226 101.973-152.747c1.82-2.841 2.902-6.308 2.902-10.027s-1.081-7.185-2.947-10.102l0.045 0.075-81.92-122.453h210.773l60.16 90.453c7.808 11.571 12.464 25.828 12.464 41.173s-4.656 29.603-12.631 41.438l0.168-0.264z" />
<glyph unicode="&#xe902;" d="M768 704v-256c0-141.385-114.615-256-256-256s-256 114.615-256 256v0 256h512zM896 874.667h-768c-23.564 0-42.667-19.103-42.667-42.667v0-384c0-235.641 191.025-426.667 426.667-426.667v0 0c235.641 0 426.667 191.025 426.667 426.667v0 384c0 23.564-19.103 42.667-42.667 42.667v0z" />
<glyph unicode="&#xe903;" d="M896 874.667h-384v-170.667h256v-256c0-141.385-114.615-256-256-256v0-170.667c235.641 0 426.667 191.025 426.667 426.667v0 384c0 23.564-19.103 42.667-42.667 42.667v0z" />
<glyph unicode="&#xe904;" d="M926.293 478.293l-384 384c-7.733 7.795-18.45 12.621-30.293 12.621s-22.56-4.826-30.291-12.618l-384.003-384.003c-7.795-7.733-12.621-18.45-12.621-30.293s4.826-22.56 12.618-30.291l384.003-384.003c7.733-7.795 18.45-12.621 30.293-12.621s22.56 4.826 30.291 12.618l384.003 384.003c7.795 7.733 12.621 18.45 12.621 30.293s-4.826 22.56-12.618 30.291l-0.003 0.003zM512 651.093l117.76-117.76h-235.52zM512 244.907l-117.76 117.76h235.52z" />
<glyph unicode="&#xe905;" d="M629.76 533.333h-117.76v-170.667h117.76l-117.76-117.76v-223.573c0.073 0 0.16-0.001 0.247-0.001 11.721 0 22.338 4.726 30.049 12.377l383.997 383.997c7.795 7.733 12.621 18.45 12.621 30.293s-4.826 22.56-12.618 30.291l-384.003 384.003c-7.709 7.648-18.326 12.374-30.047 12.374-0.087 0-0.173 0-0.26-0.001h0.013v-223.573z" />
<glyph unicode="&#xe906;" d="M512 651.093l203.093-203.093-203.093-203.093-203.093 203.093 203.093 203.093zM512 874.667c-0.073 0-0.16 0.001-0.247 0.001-11.721 0-22.338-4.726-30.049-12.377l-383.997-383.997c-7.795-7.733-12.621-18.45-12.621-30.293s4.826-22.56 12.618-30.291l384.003-384.003c7.733-7.795 18.45-12.621 30.293-12.621s22.56 4.826 30.291 12.618l384.003 384.003c7.795 7.733 12.621 18.45 12.621 30.293s-4.826 22.56-12.618 30.291l-384.003 384.003c-7.709 7.648-18.326 12.374-30.047 12.374-0.087 0-0.173 0-0.26-0.001h0.013z" />
<glyph unicode="&#xe907;" d="M542.293 862.293c-7.733 7.795-18.45 12.621-30.293 12.621s-22.56-4.826-30.291-12.618l-384.003-384.003c-7.648-7.709-12.374-18.326-12.374-30.047 0-0.087 0-0.173 0.001-0.26v0.013h223.573l203.093 203.093 203.093-203.093h223.573c0 0.073 0.001 0.16 0.001 0.247 0 11.721-4.726 22.338-12.377 30.049l0.003-0.003z" />
<glyph unicode="&#xe908;" d="M938.667 448c0-235.641-191.025-426.667-426.667-426.667s-426.667 191.025-426.667 426.667c0 235.641 191.025 426.667 426.667 426.667s426.667-191.025 426.667-426.667z" />
<glyph unicode="&#xe909;" d="M682.667 576v-256c0-23.564-19.103-42.667-42.667-42.667h-256c-23.564 0-42.667 19.103-42.667 42.667v256c0 23.564 19.103 42.667 42.667 42.667h256c23.564 0 42.667-19.103 42.667-42.667z" />
<glyph unicode="&#xe90a;" glyph-name="abstract-6" d="M810.667 533.333h-8.107c4.977 12.646 7.936 27.286 8.106 42.596l0.001 0.071c0 70.692-57.308 128-128 128v0c-26.776-0.075-51.603-8.359-72.112-22.468l0.432 0.281c-37.668 63.804-106.077 105.932-184.326 105.932-117.262 0-212.427-94.609-213.327-211.659l-0.001-0.086c0.149-15.183 1.695-29.91 4.516-44.179l-0.249 1.512h-4.267c-70.692 0-128-57.308-128-128s57.308-128 128-128v0h170.667l189.44-189.44c7.053-7.194 16.872-11.654 27.734-11.654 21.443 0 38.827 17.383 38.827 38.827 0 0.047 0 0.094 0 0.141v-0.007 162.133h170.667c70.692 0 128 57.308 128 128s-57.308 128-128 128v0z" />
<glyph unicode="&#xe90b;" d="M512 688.64l208.64-120.32v-240.64l-208.64-120.32-208.64 120.32v240.64l208.64 120.32zM512 874.667c-0.145 0.001-0.316 0.002-0.488 0.002-13.006 0-25.198-3.485-35.694-9.571l0.342 0.183-305.493-177.92c-21.568-12.521-35.84-35.509-35.84-61.83 0-0.013 0-0.026 0-0.039v0.002-354.987c0-0.011 0-0.024 0-0.037 0-26.321 14.272-49.309 35.5-61.647l0.34-0.183 307.627-177.92c10.31-5.919 22.668-9.41 35.84-9.41s25.53 3.491 36.197 9.598l-0.357-0.188 307.627 177.92c21.568 12.521 35.84 35.509 35.84 61.83 0 0.013 0 0.026 0 0.039v-0.002 354.987c0 0.011 0 0.024 0 0.037 0 26.321-14.272 49.309-35.5 61.647l-0.34 0.183-309.76 177.92c-10.154 5.904-22.346 9.388-35.352 9.388-0.172 0-0.343-0.001-0.514-0.002h0.026z" />
<glyph unicode="&#xe90c;" d="M855.467 687.36l-307.627 177.92c-10.33 5.842-22.672 9.313-35.818 9.387h-0.022v-186.453l208.213-119.893v-240.64l-208.213-119.893v-186.453c13.076 0.085 25.285 3.721 35.732 9.991l-0.319-0.178 307.627 177.493c21.568 12.521 35.84 35.509 35.84 61.83 0 0.013 0 0.026 0 0.039v-0.002 354.987c0 0.084 0.001 0.183 0.001 0.283 0 26.148-14.085 49.007-35.082 61.403l-0.332 0.181z" />
<glyph unicode="&#xe90d;" d="M938.667 448c0-235.641-191.025-426.667-426.667-426.667s-426.667 191.025-426.667 426.667c0 235.641 191.025 426.667 426.667 426.667v0c235.641 0 426.667-191.025 426.667-426.667v0zM512 704c-141.385 0-256-114.615-256-256s114.615-256 256-256c141.385 0 256 114.615 256 256v0c0 141.385-114.615 256-256 256v0z" />
<glyph unicode="&#xe90e;" d="M768 448c0-141.385-114.615-256-256-256v0-170.667c235.641 0 426.667 191.025 426.667 426.667s-191.025 426.667-426.667 426.667v0-170.667c141.385 0 256-114.615 256-256v0z" />
<glyph unicode="&#xe90f;" d="M725.333 661.333v-426.667h-426.667v426.667h426.667zM853.333 832h-682.667c-23.564 0-42.667-19.103-42.667-42.667v0-682.667c0-23.564 19.103-42.667 42.667-42.667v0h682.667c23.564 0 42.667 19.103 42.667 42.667v0 682.667c0 23.564-19.103 42.667-42.667 42.667v0z" />
<glyph unicode="&#xe910;" d="M853.333 832h-341.333v-170.667h213.333v-426.667h-213.333v-170.667h341.333c23.564 0 42.667 19.103 42.667 42.667v0 682.667c0 23.564-19.103 42.667-42.667 42.667v0z" />
<glyph unicode="&#xe911;" d="M896 490.667v-85.333c0-23.564-19.103-42.667-42.667-42.667h-682.667c-23.564 0-42.667 19.103-42.667 42.667v85.333c0 23.564 19.103 42.667 42.667 42.667h682.667c23.564 0 42.667-19.103 42.667-42.667z" />
<glyph unicode="&#xe912;" d="M469.333 832h85.333c23.564 0 42.667-19.103 42.667-42.667v-682.667c0-23.564-19.103-42.667-42.667-42.667h-85.333c-23.564 0-42.667 19.103-42.667 42.667v682.667c0 23.564 19.103 42.667 42.667 42.667z" />
<glyph unicode="&#xe913;" d="M753.359 749.675l60.34-60.34c16.662-16.662 16.662-43.677 0-60.34l-482.718-482.718c-16.662-16.662-43.677-16.662-60.34 0l-60.34 60.34c-16.662 16.662-16.662 43.677 0 60.34l482.718 482.718c16.662 16.662 43.677 16.662 60.34 0z" />
<glyph unicode="&#xe914;" d="M210.325 689.359l60.34 60.34c16.662 16.662 43.677 16.662 60.34 0l482.718-482.718c16.662-16.662 16.662-43.677 0-60.34l-60.34-60.34c-16.662-16.662-43.677-16.662-60.34 0l-482.718 482.718c-16.662 16.662-16.662 43.677 0 60.34z" />
<glyph unicode="&#xe915;" d="M554.667 21.333h-85.333c-23.564 0-42.667 19.103-42.667 42.667v0 128c0 23.564 19.103 42.667 42.667 42.667v0h85.333c23.564 0 42.667-19.103 42.667-42.667v0-128c0-23.564-19.103-42.667-42.667-42.667v0zM776.533 502.187l110.507 64c12.853 7.512 21.35 21.244 21.35 36.96 0 7.747-2.064 15.011-5.673 21.273l0.11-0.207-42.667 74.24c-7.53 12.777-21.22 21.215-36.882 21.215-7.952 0-15.395-2.175-21.768-5.963l0.197 0.108-110.507-64c-12.853-7.512-21.35-21.244-21.35-36.96 0-7.747 2.064-15.011 5.673-21.273l-0.11 0.207 42.667-74.24c7.53-12.777 21.22-21.215 36.882-21.215 7.952 0 15.395 2.175 21.768 5.963l-0.197-0.108zM332.8 649.813l-110.507 64c-6.176 3.68-13.62 5.855-21.572 5.855-15.661 0-29.352-8.438-36.773-21.016l-0.109-0.199-42.667-74.24c-3.499-6.055-5.563-13.32-5.563-21.067 0-15.716 8.497-29.448 21.148-36.851l0.202-0.109 110.507-64c6.176-3.68 13.62-5.855 21.572-5.855 15.661 0 29.352 8.438 36.773 21.016l0.109 0.199 42.667 74.24c3.499 6.055 5.563 13.32 5.563 21.067 0 15.716-8.497 29.448-21.148 36.851l-0.202 0.109z" />
<glyph unicode="&#xe916;" d="M554.667 661.333h-85.333c-23.564 0-42.667 19.103-42.667 42.667v0 128c0 23.564 19.103 42.667 42.667 42.667v0h85.333c23.564 0 42.667-19.103 42.667-42.667v0-128c0-23.564-19.103-42.667-42.667-42.667v0zM222.293 182.187l110.507 64c12.853 7.512 21.35 21.244 21.35 36.96 0 7.747-2.064 15.011-5.673 21.273l0.11-0.207-42.667 74.24c-7.53 12.777-21.22 21.215-36.882 21.215-7.952 0-15.395-2.175-21.768-5.963l0.197 0.108-110.507-64c-12.853-7.512-21.35-21.244-21.35-36.96 0-7.747 2.064-15.011 5.673-21.273l-0.11 0.207 42.667-74.24c7.53-12.777 21.22-21.215 36.882-21.215 7.952 0 15.395 2.175 21.768 5.963l-0.197-0.108zM887.040 329.813l-110.507 64c-6.176 3.68-13.62 5.855-21.572 5.855-15.661 0-29.352-8.438-36.773-21.016l-0.109-0.199-42.667-74.24c-3.499-6.055-5.563-13.32-5.563-21.067 0-15.716 8.497-29.448 21.148-36.851l0.202-0.109 110.507-64c6.176-3.68 13.62-5.855 21.572-5.855 15.661 0 29.352 8.438 36.773 21.016l0.109 0.199 42.667 74.24c3.499 6.055 5.563 13.32 5.563 21.067 0 15.716-8.497 29.448-21.148 36.851l-0.202 0.109z" />
<glyph unicode="&#xe917;" d="M512 738.133l251.307-145.067v-290.133l-251.307-145.067-251.307 145.067v290.133l251.307 145.067zM512 874.667c-13.167-0.132-25.498-3.595-36.225-9.584l0.385 0.198-305.493-177.92c-21.568-12.521-35.84-35.509-35.84-61.83 0-0.013 0-0.026 0-0.039v0.002-354.987c0-0.011 0-0.024 0-0.037 0-26.321 14.272-49.309 35.5-61.647l0.34-0.183 307.627-177.92c10.31-5.919 22.668-9.41 35.84-9.41s25.53 3.491 36.197 9.598l-0.357-0.188 307.627 177.92c21.568 12.521 35.84 35.509 35.84 61.83 0 0.013 0 0.026 0 0.039v-0.002 354.987c0 0.011 0 0.024 0 0.037 0 26.321-14.272 49.309-35.5 61.647l-0.34 0.183-309.76 177.92c-10.343 5.791-22.673 9.254-35.8 9.386h-0.040z" />
<glyph unicode="&#xe918;" d="M583.253 448c0-39.352-31.901-71.253-71.253-71.253s-71.253 31.901-71.253 71.253c0 39.352 31.901 71.253 71.253 71.253s71.253-31.901 71.253-71.253z" />
<glyph unicode="&#xe919;" d="M128 832h768c23.564 0 42.667-19.103 42.667-42.667v-85.333c0-23.564-19.103-42.667-42.667-42.667h-768c-23.564 0-42.667 19.103-42.667 42.667v85.333c0 23.564 19.103 42.667 42.667 42.667z" />
<glyph unicode="&#xe91a;" d="M896 362.667h-768c-23.564 0-42.667 19.103-42.667 42.667v0 85.333c0 23.564 19.103 42.667 42.667 42.667v0h768c23.564 0 42.667-19.103 42.667-42.667v0-85.333c0-23.564-19.103-42.667-42.667-42.667v0zM938.667 106.667v85.333c0 23.564-19.103 42.667-42.667 42.667v0h-768c-23.564 0-42.667-19.103-42.667-42.667v0-85.333c0-23.564 19.103-42.667 42.667-42.667v0h768c23.564 0 42.667 19.103 42.667 42.667v0z" />
<glyph unicode="&#xe91b;" d="M516.267 24.747l-75.52 33.707c-14.379 7.065-24.101 21.605-24.101 38.416 0 5.842 1.174 11.409 3.299 16.479l-0.105-0.281 16.64 37.973c18.593 38.613 29.458 83.958 29.458 131.84s-10.864 93.227-30.262 133.703l0.804-1.863c-27.681 58.299-43.844 126.675-43.844 198.827s16.163 140.527 45.067 201.704l-1.223-2.877 16.64 37.547c6.995 14.574 21.636 24.458 38.586 24.458 5.777 0 11.285-1.148 16.31-3.228l-0.283 0.104 75.52-33.707c14.379-7.065 24.101-21.605 24.101-38.416 0-5.842-1.174-11.409-3.299-16.479l0.105 0.281-16.64-36.267c-18.593-38.613-29.458-83.958-29.458-131.84s10.864-93.227 30.262-133.703l-0.804 1.863c27.681-58.299 43.844-126.675 43.844-198.827s-16.163-140.527-45.067-201.704l1.223 2.877-16.64-37.547c-6.684-15.361-21.729-25.907-39.237-25.907-5.531 0-10.815 1.052-15.665 2.968l0.289-0.101zM864.853 46.080l16.64 37.547c27.573 58.319 43.67 126.693 43.67 198.827s-16.097 140.507-44.896 201.725l1.225-2.898c-18.593 38.613-29.458 83.958-29.458 131.84s10.864 93.227 30.262 133.703l-0.804-1.863 17.067 37.973c2.020 4.789 3.194 10.356 3.194 16.198 0 16.811-9.722 31.351-23.85 38.304l-0.251 0.111-75.52 33.707c-4.742 1.977-10.25 3.125-16.027 3.125-16.95 0-31.591-9.884-38.475-24.202l-0.111-0.256-17.067-37.547c-27.681-58.299-43.844-126.675-43.844-198.827s16.163-140.527 45.067-201.704l-1.223 2.877c18.593-38.613 29.458-83.958 29.458-131.84s-10.864-93.227-30.262-133.703l0.804 1.863-16.64-37.973c-2.020-4.789-3.194-10.356-3.194-16.198 0-16.811 9.722-31.351 23.85-38.304l0.251-0.111 75.52-33.707c4.742-1.977 10.25-3.125 16.027-3.125 16.95 0 31.591 9.884 38.475 24.202l0.111 0.256z" />
<glyph unicode="&#xe91c;" d="M221.867 24.747l-75.52 33.707c-14.379 7.065-24.101 21.605-24.101 38.416 0 5.842 1.174 11.409 3.299 16.479l-0.105-0.281 17.067 37.973c18.593 38.613 29.458 83.958 29.458 131.84s-10.864 93.227-30.262 133.703l0.804-1.863c-27.573 58.319-43.67 126.693-43.67 198.827s16.097 140.507 44.896 201.725l-1.225-2.898 16.64 37.547c7.023 14.496 21.624 24.314 38.518 24.314 5.641 0 11.026-1.095 15.955-3.083l-0.287 0.102 75.52-33.707c14.379-7.065 24.101-21.605 24.101-38.416 0-5.842-1.174-11.409-3.299-16.479l0.105 0.281-16.213-36.267c-18.593-38.613-29.458-83.958-29.458-131.84s10.864-93.227 30.262-133.703l-0.804 1.863c27.681-58.299 43.844-126.675 43.844-198.827s-16.163-140.527-45.067-201.704l1.223 2.877-17.067-37.547c-6.684-15.361-21.729-25.907-39.237-25.907-5.531 0-10.815 1.052-15.665 2.968l0.289-0.101z" />
<glyph unicode="&#xe91d;" d="M88.747 443.733l33.707 75.52c7.065 14.379 21.605 24.101 38.416 24.101 5.842 0 11.409-1.174 16.479-3.299l-0.281 0.105 37.973-16.64c38.613-18.593 83.958-29.458 131.84-29.458s93.227 10.864 133.703 30.262l-1.863-0.804c58.299 27.681 126.675 43.844 198.827 43.844s140.527-16.163 201.704-45.067l-2.877 1.223 37.547-16.64c14.574-6.995 24.458-21.636 24.458-38.586 0-5.777-1.148-11.285-3.228-16.31l0.104 0.283-33.707-75.52c-7.065-14.379-21.605-24.101-38.416-24.101-5.842 0-11.409 1.174-16.479 3.299l0.281-0.105-36.267 16.64c-38.613 18.593-83.958 29.458-131.84 29.458s-93.227-10.864-133.703-30.262l1.863 0.804c-58.299-27.681-126.675-43.844-198.827-43.844s-140.527 16.163-201.704 45.067l2.877-1.223-37.547 16.64c-15.361 6.684-25.907 21.729-25.907 39.237 0 5.531 1.052 10.815 2.968 15.665l-0.101-0.289zM110.080 95.147l37.547-16.64c58.319-27.573 126.693-43.67 198.827-43.67s140.507 16.097 201.725 44.896l-2.898-1.225c38.613 18.593 83.958 29.458 131.84 29.458s93.227-10.864 133.703-30.262l-1.863 0.804 37.973-17.067c4.789-2.020 10.356-3.194 16.198-3.194 16.811 0 31.351 9.722 38.304 23.85l0.111 0.251 33.707 75.52c1.977 4.742 3.125 10.25 3.125 16.027 0 16.95-9.884 31.591-24.202 38.475l-0.256 0.111-37.547 17.067c-58.299 27.681-126.675 43.844-198.827 43.844s-140.527-16.163-201.704-45.067l2.877 1.223c-38.613-18.593-83.958-29.458-131.84-29.458s-93.227 10.864-133.703 30.262l1.863-0.804-37.973 16.64c-4.789 2.020-10.356 3.194-16.198 3.194-16.811 0-31.351-9.722-38.304-23.85l-0.111-0.251-33.707-75.947c-1.886-4.642-2.981-10.028-2.981-15.669 0-16.894 9.819-31.495 24.061-38.407l0.254-0.111z" />
<glyph unicode="&#xe91e;" d="M88.747 738.133l33.707 75.52c7.065 14.379 21.605 24.101 38.416 24.101 5.842 0 11.409-1.174 16.479-3.299l-0.281 0.105 37.973-17.067c38.613-18.593 83.958-29.458 131.84-29.458s93.227 10.864 133.703 30.262l-1.863-0.804c58.319 27.573 126.693 43.67 198.827 43.67s140.507-16.097 201.725-44.896l-2.898 1.225 37.547-16.64c14.496-7.023 24.314-21.624 24.314-38.518 0-5.641-1.095-11.026-3.083-15.955l0.102 0.287-33.707-75.52c-7.065-14.379-21.605-24.101-38.416-24.101-5.842 0-11.409 1.174-16.479 3.299l0.281-0.105-36.267 16.213c-38.613 18.593-83.958 29.458-131.84 29.458s-93.227-10.864-133.703-30.262l1.863 0.804c-58.299-27.681-126.675-43.844-198.827-43.844s-140.527 16.163-201.704 45.067l2.877-1.223-37.547 17.067c-15.361 6.684-25.907 21.729-25.907 39.237 0 5.531 1.052 10.815 2.968 15.665l-0.101-0.289z" />
<glyph unicode="&#xe91f;" d="M456.107 503.893c113.362 114.412 266.992 188.756 437.856 199.999l2.037 0.107c23.939 1.83 42.67 21.704 42.67 45.954 0 0.194-0.001 0.389-0.004 0.582v-0.029 81.493c0 23.564-19.103 42.667-42.667 42.667v0c-438.548-22.091-788.575-372.119-810.585-808.635l-0.082-2.032c0-23.564 19.103-42.667 42.667-42.667v0h82.773c23.94 0.39 43.417 18.977 45.217 42.51l0.010 0.156c11.35 172.9 85.694 326.53 200.055 439.842l0.052 0.051z" />
<glyph unicode="&#xe920;" d="M637.013 322.987c67.144 67.691 157.024 112.741 257.226 122.738l1.76 0.142c23.457 1.988 41.852 21.122 42.665 44.722l0.002 0.078v85.333c0 0.051 0 0.112 0 0.173 0 23.564-19.103 42.667-42.667 42.667-1.352 0-2.689-0.063-4.009-0.186l0.169 0.013c-294.573-22.833-527.993-256.254-550.699-548.777l-0.128-2.049c-0.11-1.151-0.173-2.488-0.173-3.84 0-23.564 19.103-42.667 42.667-42.667 0.061 0 0.122 0 0.183 0h85.324c0.047 0 0.103 0 0.159 0 24.333 0 44.302 18.688 46.336 42.495l0.012 0.172c9.648 101.768 54.115 191.65 121.188 259.001l-0.014-0.014zM697.173 262.827c50.669 50.601 117.17 85.359 191.433 96.205l1.847 0.221c1.666 0.231 3.592 0.362 5.548 0.362 23.564 0 42.667-19.103 42.667-42.667 0-0.127-0.001-0.255-0.002-0.382v0.019-81.92c-0.425-22.867-16.848-41.777-38.524-46.031l-0.303-0.049c-63.716-15.042-112.957-64.284-127.769-126.841l-0.231-1.159c-4.155-22.3-23.344-38.997-46.479-39.253h-82.374c-0.108-0.001-0.235-0.002-0.362-0.002-23.564 0-42.667 19.103-42.667 42.667 0 1.956 0.132 3.882 0.387 5.768l-0.024-0.22c11.191 76.154 46.094 142.655 96.846 193.273l0.007 0.007z" />
<glyph unicode="&#xe921;" d="M768 21.333h-512c-22.117 1.748-39.402 20.126-39.402 42.542 0 8.97 2.768 17.293 7.496 24.162l-0.094-0.144 220.16 274.773c15.749 20.492 40.267 33.569 67.84 33.569s52.091-13.077 67.691-33.368l0.149-0.201 220.587-275.627c4.29-6.544 6.843-14.561 6.843-23.175 0-22.368-17.213-40.717-39.116-42.521l-0.154-0.010z" />
<glyph unicode="&#xe922;" d="M800.427 808.107l-220.587-274.773c-15.749-20.492-40.267-33.569-67.84-33.569s-52.091 13.077-67.691 33.368l-0.149 0.201-220.587 274.773c-4.622 6.719-7.383 15.032-7.383 23.989 0 22.559 17.507 41.028 39.676 42.563l0.133 0.007h512c22.302-1.542 39.809-20.012 39.809-42.571 0-8.957-2.76-17.27-7.476-24.134l0.094 0.145z" />
<glyph unicode="&#xe923;" d="M738.133 456.107l-226.133-392.107h391.253c0.052 0 0.114 0 0.176 0 19.558 0 35.413 15.855 35.413 35.413 0 6.606-1.809 12.79-4.959 18.083l0.090-0.163z" />
<glyph unicode="&#xe924;" d="M512 64h-391.253c-0.052 0-0.114 0-0.176 0-19.558 0-35.413 15.855-35.413 35.413 0 6.606 1.809 12.79 4.959 18.083l-0.090-0.163 195.84 338.773zM481.28 794.88l-195.413-338.773h452.267l-195.413 338.773c-6.225 10.71-17.645 17.796-30.72 17.796s-24.495-7.086-30.629-17.627l-0.091-0.169z" />
<glyph unicode="&#xe925;" d="M938.667 448c0-235.641-191.025-426.667-426.667-426.667s-426.667 191.025-426.667 426.667c0 235.641 191.025 426.667 426.667 426.667v0c235.641 0 426.667-191.025 426.667-426.667v0zM618.667 768c-176.731 0-320-143.269-320-320s143.269-320 320-320c176.731 0 320 143.269 320 320v0c0 176.731-143.269 320-320 320v0z" />
<glyph unicode="&#xe926;" d="M938.667 448c0-176.731-143.269-320-320-320s-320 143.269-320 320c0 176.731 143.269 320 320 320v0c176.731 0 320-143.269 320-320v0zM512 661.333c-117.821 0-213.333-95.513-213.333-213.333s95.513-213.333 213.333-213.333c117.821 0 213.333 95.513 213.333 213.333v0c0 117.821-95.513 213.333-213.333 213.333v0z" />
<glyph unicode="&#xe927;" d="M485.547 646.4c28.81 28.864 68.64 46.72 112.641 46.72 87.894 0 159.147-71.252 159.147-159.147s-71.252-159.147-159.147-159.147c-44 0-83.83 17.856-112.638 46.717l-0.003 0.003c-28.634 28.836-46.331 68.565-46.331 112.427s17.697 83.591 46.34 112.436l-0.009-0.009zM357.547 774.4c-62.071-61.819-100.48-147.356-100.48-241.864 0-188.513 152.82-341.333 341.333-341.333s341.333 152.82 341.333 341.333c0 94.508-38.409 180.045-100.469 241.853l-0.011 0.011c-61.718 61.468-146.848 99.469-240.853 99.469s-179.135-38.002-240.864-99.481l0.011 0.011z" />
<glyph unicode="&#xe928;" d="M482.56 213.76c-17.153-6.871-37.037-10.856-57.852-10.856-88.13 0-159.573 71.443-159.573 159.573s71.443 159.573 159.573 159.573c83.257 0 151.621-63.761 158.927-145.116l0.045-0.615c4.707-0.501 10.168-0.786 15.695-0.786 66.759 0 123.787 41.664 146.5 100.407l0.365 1.072c-48.679 132.944-174.108 226.106-321.296 226.106-188.513 0-341.333-152.82-341.333-341.333s152.82-341.333 341.333-341.333c138.317 0 257.419 82.272 311.039 200.549l0.87 2.145c-40.83-18.642-88.561-29.509-138.83-29.509-41.413 0-81.104 7.375-117.831 20.884l2.368-0.762z" />
<glyph unicode="&#xe929;" d="M512 90.027c2.873-21.022 20.712-37.047 42.295-37.047 13.879 0 26.209 6.626 34.001 16.888l0.077 0.106 228.693 399.787c3.443 6.017 5.473 13.225 5.473 20.907 0 23.538-19.061 42.625-42.589 42.667h-267.951z" />
<glyph unicode="&#xe92a;" d="M512 805.973c-2.873 21.022-20.712 37.047-42.295 37.047-13.879 0-26.209-6.626-34.001-16.888l-0.077-0.106-228.693-399.787c-3.443-6.017-5.473-13.225-5.473-20.907 0-23.538 19.061-42.625 42.589-42.667h267.951z" />
<glyph unicode="&#xe92b;" d="M304.64 49.067c-7.6-5.628-17.16-9.009-27.51-9.009-25.685 0-46.507 20.822-46.507 46.507 0 5.205 0.855 10.211 2.433 14.883l-0.096-0.328 79.36 244.053-207.787 150.613c-12.7 8.439-20.957 22.685-20.957 38.86 0 25.685 20.822 46.507 46.507 46.507 0.618 0 1.233-0.012 1.845-0.036l-0.088 0.003h760.32c0.524 0.021 1.139 0.033 1.757 0.033 25.685 0 46.507-20.822 46.507-46.507 0-16.175-8.257-30.421-20.786-38.753l-0.171-0.107z" />
<glyph unicode="&#xe92c;" d="M469.333 823.893l-157.013-478.72 407.040-296.107c7.6-5.628 17.16-9.009 27.51-9.009 25.685 0 46.507 20.822 46.507 46.507 0 5.205-0.855 10.211-2.433 14.883l0.096-0.328-236.373 722.773c-7.339 16.616-23.673 28.002-42.667 28.002s-35.328-11.386-42.549-27.705l-0.117-0.297z" />
<glyph unicode="&#xe92d;" d="M721.493 783.36v-174.080l-209.493-120.747v241.92l150.613 85.333c5.637 3.317 12.419 5.277 19.657 5.277 21.134 0 38.367-16.702 39.22-37.626l0.003-0.077zM104.96 373.76l150.613-85.333 209.92 116.907-209.493 123.307-150.613-85.333c-12.724-6.666-21.257-19.779-21.257-34.885 0-14.937 8.343-27.925 20.623-34.559l0.208-0.103zM768 112.64v174.080l-209.493 118.613v-241.92l151.040-85.333c5.527-3.156 12.147-5.017 19.201-5.017 21.679 0 39.253 17.574 39.253 39.253 0 0.114 0 0.227-0.001 0.341v-0.017z" />
<glyph unicode="&#xe92e;" d="M361.387 817.493l150.613-85.333v-241.92l-209.493 119.040v174.080c0 0.041 0 0.090 0 0.139 0 21.679 17.574 39.253 39.253 39.253 7.226 0 13.997-1.953 19.812-5.359l-0.185 0.1zM314.453 78.507l151.040 85.333v241.493l-209.493-118.613v-174.080c0.059-21.634 17.611-39.15 39.253-39.15 7.054 0 13.673 1.861 19.394 5.118l-0.194-0.101zM919.040 441.6l-150.613 85.333-209.92-121.6 209.493-118.613 150.613 85.333c12.724 6.666 21.257 19.779 21.257 34.885 0 14.937-8.343 27.925-20.623 34.559l-0.208 0.103z" />
<glyph unicode="&#xe92f;" d="M298.667 83.2l-213.333 123.307v246.187l213.333 123.307 213.333-123.307v-246.187zM896 70.4v98.56l-85.333 49.493-85.333-49.493v-98.56l85.333-49.067z" />
<glyph unicode="&#xe930;" d="M938.667 357.547v344.747l-298.667 172.373-298.667-172.373v-344.747l298.667-172.8 298.667 172.8z" />
<glyph unicode="&#xe931;" d="M906.667 169.813l-352-139.947c-12.995-5.466-28.1-8.643-43.947-8.643s-30.952 3.176-44.713 8.927l0.766-0.284-349.44 139.947c-19.070 7.736-32.273 26.113-32.273 47.573s13.204 39.838 31.931 47.45l0.343 0.123 53.333 21.76 264.107-105.813c22.496-9.178 48.599-14.505 75.947-14.505s53.45 5.327 77.328 14.999l-1.381-0.495 266.667 105.813 54.613-21.76c18.733-7.889 31.646-26.096 31.646-47.319 0-21.707-13.508-40.259-32.577-47.708l-0.348-0.12zM554.667 260.267l350.72 140.373c18.787 7.865 31.746 26.099 31.746 47.36s-12.959 39.495-31.408 47.234l-0.337 0.126-350.72 140.373c-12.667 4.95-27.332 7.819-42.667 7.819s-30-2.869-43.488-8.099l0.821 0.28-352-140.373c-18.787-7.865-31.746-26.099-31.746-47.36s12.959-39.495 31.408-47.234l0.337-0.126 352-140.373c12.667-4.95 27.332-7.819 42.667-7.819s30 2.869 43.488 8.099l-0.821-0.28z" />
<glyph unicode="&#xe932;" d="M469.333 490.667l-352 140.373c-19.070 7.736-32.273 26.113-32.273 47.573s13.204 39.838 31.931 47.45l0.343 0.123 352 139.947c12.64 5.143 27.305 8.128 42.667 8.128s30.026-2.985 43.446-8.406l-0.779 0.278 350.72-139.947c19.070-7.736 32.273-26.113 32.273-47.573s-13.204-39.838-31.931-47.45l-0.343-0.123-350.72-140.373c-12.667-4.95-27.332-7.819-42.667-7.819s-30 2.869-43.488 8.099l0.821-0.28z" />
<glyph unicode="&#xe933;" d="M682.667 704l225.707-225.707c7.795-7.733 12.621-18.45 12.621-30.293s-4.826-22.56-12.618-30.291l-140.376-140.376-256 256zM115.627 417.707l225.707-225.707 170.667 170.667-256 256-140.373-140.373c-7.795-7.733-12.621-18.45-12.621-30.293s4.826-22.56 12.618-30.291l0.003-0.003z" />
<glyph unicode="&#xe934;" d="M768 277.333l-225.707-225.707c-7.733-7.795-18.45-12.621-30.293-12.621s-22.56 4.826-30.291 12.618l-140.376 140.376 256 256zM481.707 844.373l-225.707-225.707 170.667-170.667 256 256-140.373 140.373c-7.733 7.795-18.45 12.621-30.293 12.621s-22.56-4.826-30.291-12.618l-0.003-0.003z" />
<glyph unicode="&#xe935;" d="M469.333 682.667c0-106.039-85.961-192-192-192s-192 85.961-192 192c0 106.039 85.961 192 192 192s192-85.961 192-192z" />
<glyph unicode="&#xe936;" d="M554.667 682.667c0 106.039 85.961 192 192 192s192-85.961 192-192c0-106.039-85.961-192-192-192v0c-0.127 0-0.277 0-0.427 0-105.803 0-191.573 85.77-191.573 191.573 0 0.15 0 0.3 0.001 0.45v-0.023zM277.333 21.333c106.039 0 192 85.961 192 192s-85.961 192-192 192c-106.039 0-192-85.961-192-192v0c0-0.127 0-0.277 0-0.427 0-105.803 85.77-191.573 191.573-191.573 0.15 0 0.3 0 0.45 0.001h-0.023zM746.667 21.333c106.039 0 192 85.961 192 192s-85.961 192-192 192c-106.039 0-192-85.961-192-192v0c0-0.127 0-0.277 0-0.427 0-105.803 85.77-191.573 191.573-191.573 0.15 0 0.3 0 0.45 0.001h-0.023z" />
<glyph unicode="&#xe937;" d="M298.667 768c0-58.91-47.756-106.667-106.667-106.667s-106.667 47.756-106.667 106.667c0 58.91 47.756 106.667 106.667 106.667s106.667-47.756 106.667-106.667z" />
<glyph unicode="&#xe938;" d="M597.333 768c0-58.91-47.756-106.667-106.667-106.667s-106.667 47.756-106.667 106.667c0 58.91 47.756 106.667 106.667 106.667v0c58.91 0 106.667-47.756 106.667-106.667v0zM789.333 874.667c-58.91 0-106.667-47.756-106.667-106.667s47.756-106.667 106.667-106.667c58.91 0 106.667 47.756 106.667 106.667v0c0 58.91-47.756 106.667-106.667 106.667v0zM192 576c-58.91 0-106.667-47.756-106.667-106.667s47.756-106.667 106.667-106.667c58.91 0 106.667 47.756 106.667 106.667v0c0 58.91-47.756 106.667-106.667 106.667v0zM490.667 576c-58.91 0-106.667-47.756-106.667-106.667s47.756-106.667 106.667-106.667c58.91 0 106.667 47.756 106.667 106.667v0c0 58.91-47.756 106.667-106.667 106.667v0zM789.333 576c-58.91 0-106.667-47.756-106.667-106.667s47.756-106.667 106.667-106.667c58.91 0 106.667 47.756 106.667 106.667v0c0 58.91-47.756 106.667-106.667 106.667v0zM192 277.333c-58.91 0-106.667-47.756-106.667-106.667s47.756-106.667 106.667-106.667c58.91 0 106.667 47.756 106.667 106.667v0c0 58.91-47.756 106.667-106.667 106.667v0zM490.667 277.333c-58.91 0-106.667-47.756-106.667-106.667s47.756-106.667 106.667-106.667c58.91 0 106.667 47.756 106.667 106.667v0c0 58.91-47.756 106.667-106.667 106.667v0zM789.333 277.333c-58.91 0-106.667-47.756-106.667-106.667s47.756-106.667 106.667-106.667c58.91 0 106.667 47.756 106.667 106.667v0c0 58.91-47.756 106.667-106.667 106.667v0z" />
<glyph unicode="&#xe939;" d="M256 789.333c0-47.128-38.205-85.333-85.333-85.333s-85.333 38.205-85.333 85.333c0 47.128 38.205 85.333 85.333 85.333s85.333-38.205 85.333-85.333z" />
<glyph unicode="&#xe93a;" d="M597.333 448c0-47.128-38.205-85.333-85.333-85.333s-85.333 38.205-85.333 85.333c0 47.128 38.205 85.333 85.333 85.333v0c47.128 0 85.333-38.205 85.333-85.333v0zM170.667 533.333c-47.128 0-85.333-38.205-85.333-85.333s38.205-85.333 85.333-85.333c47.128 0 85.333 38.205 85.333 85.333v0c0 47.128-38.205 85.333-85.333 85.333v0zM853.333 533.333c-47.128 0-85.333-38.205-85.333-85.333s38.205-85.333 85.333-85.333c47.128 0 85.333 38.205 85.333 85.333v0c0 47.128-38.205 85.333-85.333 85.333v0zM512 874.667c-47.128 0-85.333-38.205-85.333-85.333s38.205-85.333 85.333-85.333c47.128 0 85.333 38.205 85.333 85.333v0c0 47.128-38.205 85.333-85.333 85.333v0zM853.333 874.667c-47.128 0-85.333-38.205-85.333-85.333s38.205-85.333 85.333-85.333c47.128 0 85.333 38.205 85.333 85.333v0c0 47.128-38.205 85.333-85.333 85.333v0zM512 192c-47.128 0-85.333-38.205-85.333-85.333s38.205-85.333 85.333-85.333c47.128 0 85.333 38.205 85.333 85.333v0c0 47.128-38.205 85.333-85.333 85.333v0zM170.667 192c-47.128 0-85.333-38.205-85.333-85.333s38.205-85.333 85.333-85.333c47.128 0 85.333 38.205 85.333 85.333v0c0 47.128-38.205 85.333-85.333 85.333v0zM853.333 192c-47.128 0-85.333-38.205-85.333-85.333s38.205-85.333 85.333-85.333c47.128 0 85.333 38.205 85.333 85.333v0c0 47.128-38.205 85.333-85.333 85.333v0z" />
<glyph unicode="&#xe93b;" d="M938.667 448c-0.009-39.004-5.303-76.768-15.206-112.62l0.699 2.967-710.827 412.16c76.898 75.421 182.349 121.971 298.672 121.971 234.872 0 425.418-189.779 426.661-424.359v-0.119z" />
<glyph unicode="&#xe93c;" d="M156.587 212.48c-43.967 66.017-70.157 147.152-70.157 234.404 0 118.78 48.537 226.224 126.86 303.58l0.044 0.043 183.467-107.52v-291.84zM734.72 448l-521.387-302.507c77.109-76.605 183.365-123.952 300.68-123.952 196.575 0 362.101 132.936 411.582 313.813l0.698 2.993z" />
<glyph unicode="&#xe93d;" d="M813.653 749.653c40.553-40.428 72.961-89.001 94.565-143.060l1.009-2.86-155.733-155.733-397.227 397.227c46.14 18.613 99.644 29.412 155.67 29.412 117.829 0 224.503-47.763 301.716-124.985l0.001-0.001zM114.773 292.267c63.815-160.284 217.646-271.512 397.456-271.512 56.608 0 110.642 11.024 160.071 31.043l-2.861-1.024-398.933 397.227z" />
<glyph unicode="&#xe93e;" d="M356.267 845.227l155.733-155.733-397.227-397.227c-18.995 46.568-30.019 100.602-30.019 157.21 0 179.81 111.228 333.641 268.633 396.443l2.879 1.014zM512 205.227l155.733-155.733c160.284 63.815 271.512 217.646 271.512 397.456 0 56.608-11.024 110.642-31.043 160.071l1.024-2.861z" />
<glyph unicode="&#xe93f;" d="M938.667 448c-0.004-78.548-21.232-152.138-58.263-215.346l1.090 2.013-246.187 426.667h246.187c35.941-61.196 57.17-134.785 57.173-213.332v-0.001zM142.507 661.333l123.307-213.333 246.187 426.667c-157.090-0.004-294.35-84.903-368.403-211.32l-1.090-2.014zM142.507 234.667c75.143-128.43 212.403-213.329 369.492-213.333h0.001l123.307 213.333z" />
<glyph unicode="&#xe940;" d="M881.493 661.333h-492.8l123.307 213.333c157.090-0.004 294.35-84.903 368.403-211.32l1.090-2.014zM142.507 661.333c-35.937-61.196-57.162-134.786-57.162-213.333s21.225-152.137 58.253-215.347l-1.090 2.014h246.187zM758.187 448l-246.187-426.667c157.090 0.004 294.35 84.903 368.403 211.32l1.090 2.014z" />
<glyph unicode="&#xe941;" d="M388.693 661.333l-122.88-213.333h-180.48c0.004 157.090 84.903 294.35 211.32 368.403l2.014 1.090zM725.333 817.493l-90.027-156.16 122.88-213.333h180.48c-0.004 157.090-84.903 294.35-211.32 368.403l-2.014 1.090zM635.307 234.667h-246.613l-90.027-156.16c61.196-35.937 134.786-57.162 213.333-57.162s152.137 21.225 215.347 58.253l-2.014-1.090z" />
<glyph unicode="&#xe942;" d="M725.333 817.493l-90.027-156.16h-246.613l-90.027 156.16c61.196 35.937 134.786 57.162 213.333 57.162s152.137-21.225 215.347-58.253l-2.014 1.090zM758.187 448l-122.88-213.333 90.027-156.16c128.43 75.143 213.329 212.403 213.333 369.492v0.001zM265.813 448h-180.48c0.004-157.090 84.903-294.35 211.32-368.403l2.014-1.090 90.027 156.16z" />
<glyph unicode="&#xe943;" d="M938.667 448c0-10.24 0-20.48 0-30.293l-106.667 105.813-109.653-109.653c1.903 9.863 2.992 21.205 2.992 32.802 0 0.468-0.002 0.936-0.005 1.403v-0.072c-0.122 105.669-77.050 193.333-177.953 210.175l-1.247 0.172-109.653 109.653 105.813 106.667c222.241-16.297 396.375-200.608 396.375-425.59 0-0.378 0-0.757-0.001-1.135v0.058zM477.867 237.653c-102.15 17.013-179.078 104.678-179.2 210.334v0.013c-0.003 0.395-0.005 0.863-0.005 1.331 0 11.597 1.089 22.94 3.169 33.932l-0.178-1.129-109.653-109.653-106.667 105.813c0-9.813 0-20.053 0-30.293-0.001-0.32-0.001-0.698-0.001-1.077 0-224.982 174.133-409.293 394.975-425.508l1.399-0.082 105.813 105.387z" />
<glyph unicode="&#xe944;" d="M938.667 417.707c-16.297-222.241-200.608-396.375-425.59-396.375-0.378 0-0.757 0-1.135 0.001h0.058c-10.24 0-20.48 0-30.293 0l105.813 105.387-109.653 110.933c9.863-1.903 21.205-2.992 32.802-2.992 0.468 0 0.936 0.002 1.403 0.005h-0.072c105.669 0.122 193.333 77.050 210.175 177.953l0.172 1.247 109.653 109.653zM436.48 768l105.813 106.667c-9.813 0-20.053 0-30.293 0-0.32 0.001-0.698 0.001-1.077 0.001-224.982 0-409.293-174.133-425.508-394.975l-0.082-1.399 106.667-105.813 109.653 109.653c17.013 102.15 104.678 179.078 210.334 179.2h0.013c0.395 0.003 0.863 0.005 1.331 0.005 11.597 0 22.94-1.089 33.932-3.169l-1.129 0.178z" />
<glyph unicode="&#xe945;" d="M512 201.813v246.187l213.333-123.307c42.649-25.051 70.827-70.696 70.827-122.921 0-78.469-63.611-142.080-142.080-142.080s-142.080 63.611-142.080 142.080c0 0.015 0 0.029 0 0.044v-0.002zM298.667 324.693l213.333 123.307-213.333 123.307c-20.484 12.070-45.129 19.2-71.44 19.2-78.704 0-142.507-63.802-142.507-142.507s63.802-142.507 142.507-142.507c26.31 0 50.955 7.13 72.108 19.563l-0.669-0.363zM512 694.187v-246.187l213.333 123.307c42.649 25.051 70.827 70.696 70.827 122.921 0 78.469-63.611 142.080-142.080 142.080s-142.080-63.611-142.080-142.080c0-0.015 0-0.029 0-0.044v0.002z" />
<glyph unicode="&#xe946;" d="M298.667 571.307c-42.649 25.051-70.827 70.696-70.827 122.921 0 78.469 63.611 142.080 142.080 142.080s142.080-63.611 142.080-142.080c0-0.015 0-0.029 0-0.044v0.002-246.187l-213.333 123.307zM725.333 324.693c20.269-11.805 44.613-18.773 70.585-18.773 78.469 0 142.080 63.611 142.080 142.080s-63.611 142.080-142.080 142.080c-25.972 0-50.316-6.968-71.264-19.138l0.68 0.364-213.333-123.307 213.333-123.307zM298.667 324.693c-42.649-25.051-70.827-70.696-70.827-122.921 0-78.469 63.611-142.080 142.080-142.080s142.080 63.611 142.080 142.080c0 0.015 0 0.029 0 0.044v-0.002 246.187l-213.333-123.307z" />
<glyph unicode="&#xe947;" d="M605.867 332.8c7.812-21.142 12.331-45.561 12.331-71.036 0-38.717-10.439-74.997-28.657-106.176l0.539 0.999c-37.762-63.391-105.947-105.197-183.896-105.197-117.454 0-212.739 94.919-213.331 212.234v0.056c30.416-18.205 67.098-28.97 106.296-28.97 63.985 0 121.27 28.685 159.696 73.897l0.248 0.299c15.664-6.382 33.833-10.132 52.864-10.24h0.043c35.817 0.174 68.596 13.040 94.103 34.325l-0.236-0.192zM365.227 424.107c-1.421 7.070-2.343 15.301-2.556 23.708l-0.004 0.186c0.107 46.476 21.613 87.908 55.183 114.979l0.283 0.221c-7.881 21.16-12.442 45.608-12.442 71.121 0 77.766 42.373 145.635 105.289 181.78l1.019 0.54c-31.596 19.527-69.902 31.097-110.911 31.097-117.821 0-213.333-95.513-213.333-213.333 0-105.151 76.076-192.534 176.19-210.111l1.281-0.186zM725.333 661.333c-64.058-0.412-121.359-28.994-160.196-73.967l-0.231-0.273c49.23-18.884 85.257-62 93.753-114.35l0.114-0.85c97.821-18.936 170.68-103.892 170.68-205.866 0-0.825-0.005-1.649-0.014-2.472l0.001 0.125c63.822 37.664 105.965 106.083 105.965 184.345 0 116.674-93.662 211.472-209.899 213.306l-0.172 0.002z" />
<glyph unicode="&#xe948;" d="M418.133 563.2c-7.812 21.142-12.331 45.561-12.331 71.036 0 38.717 10.439 74.997 28.657 106.176l-0.539-0.999c37.762 63.391 105.947 105.197 183.896 105.197 117.454 0 212.739-94.919 213.331-212.234v-0.056c-30.416 18.205-67.098 28.97-106.296 28.97-63.985 0-121.27-28.685-159.696-73.897l-0.248-0.299c-15.664 6.382-33.833 10.132-52.864 10.24h-0.043c-35.817-0.174-68.596-13.040-94.103-34.325l0.236 0.192zM365.227 424.107c-97.821 18.936-170.68 103.892-170.68 205.866 0 0.825 0.005 1.649 0.014 2.472l-0.001-0.125c-66.913-36.884-111.49-106.963-111.49-187.454 0-117.821 95.513-213.333 213.333-213.333 65.991 0 124.983 29.963 164.115 77.026l0.281 0.348c-49.934 18.405-86.649 61.645-95.454 114.337l-0.119 0.863zM803.413 369.92c-31.054 52.444-82.58 89.974-143.297 101.756l-1.343 0.217c1.421-7.070 2.343-15.301 2.556-23.708l0.004-0.186c-0.107-46.476-21.613-87.908-55.183-114.979l-0.283-0.221c7.881-21.16 12.442-45.608 12.442-71.121 0-77.766-42.373-145.635-105.289-181.78l-1.019-0.54c30.42-17.705 66.952-28.155 105.925-28.155 117.821 0 213.333 95.513 213.333 213.333 0 38.753-10.333 75.093-28.394 106.414l0.549-1.032z" />
<glyph unicode="&#xe949;" d="M505.173 602.88l-178.773-309.76-124.16-213.333-98.56 170.667c-6.953 12.297-11.051 27.003-11.051 42.667s4.097 30.37 11.279 43.106l-0.228-0.44 277.76 481.707z" />
<glyph unicode="&#xe94a;" d="M505.173 602.88l-123.733 213.333h197.547c0.353 0.005 0.77 0.008 1.188 0.008 31.422 0 58.878-16.984 73.688-42.272l0.218-0.403 228.693-395.52h-247.893zM326.4 293.12l-124.16-213.333h554.667c0.479-0.010 1.044-0.015 1.61-0.015 31.425 0 58.883 16.987 73.692 42.279l0.218 0.403 98.56 170.667z" />
<glyph unicode="&#xe94b;" d="M938.667 448c0-235.641-191.025-426.667-426.667-426.667s-426.667 191.025-426.667 426.667c0 235.641 191.025 426.667 426.667 426.667s426.667-191.025 426.667-426.667z" />
<glyph unicode="&#xe94c;" d="M372.48 704c-22.73 12.955-49.714 25.726-77.677 36.531l-4.243 1.442c42.072 45.59 87.858 86.504 137.294 122.732l2.653 1.854c24.453 5.053 52.596 7.999 81.409 8.106h0.084c29.333-0.084 57.925-3.031 85.579-8.576l-2.806 0.469c-85.573-44.102-158.881-98.345-222.206-162.471l-0.088-0.089zM512 601.6c78.232 74.272 174.48 130.34 281.476 160.954l4.817 1.179c-24.887 23.008-52.887 43.255-83.145 59.909l-2.189 1.104c-103.498-39.126-192.029-96.249-265.981-168.269l0.167 0.162c23.938-18.145 45.078-36.173 65.145-55.317l-0.292 0.277zM298.667 106.667q0-13.653 0-26.88c-34.867 19.754-64.881 42.836-91.271 69.51l-0.036 0.036c-11.388 42.529-37.637 77.662-72.714 100.287l-0.672 0.406c-16.559 30.737-29.941 66.358-38.303 103.871l-0.523 2.795c116.878-25.117 203.255-127.447 203.52-249.998v-0.029zM453.547 539.307c-78.216 74.878-177.255 128.609-287.565 151.648l-3.849 0.672c-15.761-22.847-30.062-48.951-41.603-76.498l-1.064-2.862c111.917-17.013 209.583-68.424 284.164-142.937l-0.004 0.004c16.442 26.573 32.898 49.41 50.771 71.034l-0.851-1.060zM93.44 529.92c-5.076-24.592-8.023-52.887-8.107-81.855v-2.625c100.707-13.082 186.37-68.393 239.875-147.284l0.765-1.196c10.957 36.729 22.848 67.571 36.78 97.266l-1.793-4.253c-67.198 75.667-160.402 126.94-265.481 139.744l-2.039 0.202zM469.333 106.667c0.412 255.786 188.328 467.559 433.625 505.239l2.855 0.361c-12.612 30.581-26.916 56.828-43.638 81.291l0.971-1.504c-275.186-57.006-479.078-297.376-479.147-585.379v-0.007c0-22.613 0-44.8 3.84-66.987 25.811-7.976 56.002-13.87 87.116-16.528l1.631-0.112c-4.362 24.979-6.989 53.896-7.252 83.377l-0.002 0.25zM816.64 149.333c11.388 42.529 37.637 77.662 72.714 100.287l0.672 0.406c16.559 30.737 29.941 66.358 38.303 103.871l0.523 2.795c-116.878-25.117-203.255-127.447-203.52-249.998v-0.029q0-13.653 0-26.88c34.867 19.754 64.881 42.836 91.271 69.51l0.036 0.036zM640 106.667c0.162 173.343 129.512 316.425 296.952 338.165l1.714 0.182v2.987c-0.083 29.033-3.031 57.328-8.574 84.681l0.467-2.761c-212.667-26.348-375.656-205.943-375.656-423.606 0-28.856 2.865-57.043 8.325-84.292l-0.456 2.725c31.72 3.438 60.635 9.899 88.245 19.198l-2.912-0.851c-4.394 18.772-7.305 40.605-8.090 62.979l-0.017 0.594z" />
<glyph unicode="&#xe94d;" d="M677.973 320c2.971 11.785 4.681 25.317 4.693 39.246v0.008c0.003 0.39 0.005 0.85 0.005 1.311 0 31.002-8.566 60.003-23.46 84.765l0.415-0.743c-30.029 51.324-84.857 85.267-147.617 85.333h-0.009c-9.839-0.464-18.954-1.379-27.921-2.744l1.468 0.184c-170.667-21.76-287.147-172.8-374.613-319.573l353.28 613.973c9.666 16.686 27.436 27.73 47.787 27.73s38.121-11.044 47.645-27.466l0.141-0.264 12.8-22.613c82.347-146.347 152.747-319.147 105.387-479.147z" />
<glyph unicode="&#xe94e;" d="M883.2 95.573c-166.827 0-355.413 14.933-475.307 130.133 28.174-22.341 64.242-35.841 103.463-35.841 0.226 0 0.453 0 0.679 0.001h-0.035c0.095 0 0.208 0 0.32 0 63.7 0 119.25 34.899 148.571 86.62l0.442 0.847c6.004 10.772 11.107 23.252 14.661 36.369l0.272 1.178c-0.062 0.83-0.097 1.797-0.097 2.773s0.035 1.944 0.104 2.902l-0.007-0.128c49.067 158.72-23.040 331.52-105.387 477.867l358.4-620.8c4.422-7.748 7.029-17.026 7.029-26.914 0-29.719-23.554-53.936-53.012-55.003l-0.097-0.003zM371.2 178.347c-18.609 32.635-32.214 70.701-38.581 111.17l-0.246 1.897c-17.493 104.533 38.4 221.013 152.32 237.227-170.667-21.76-287.147-172.8-374.613-319.573l-17.92-30.72c-4.717-7.948-7.504-17.521-7.504-27.744 0-30.398 24.642-55.040 55.040-55.040 0.388 0 0.776 0.004 1.162 0.012l-0.058-0.001h301.227c-27.704 23.222-50.989 50.583-69.176 81.318l-0.797 1.455z" />
<glyph unicode="&#xe94f;" d="M777.813 31.147v0c-62.293 51.2-381.013 57.173-499.627 16.64-5.6-1.725-12.037-2.719-18.706-2.719-17.988 0-34.289 7.229-46.154 18.939l-118.18 118.18c94.293 95.147 374.187 124.587 590.080 92.587 15.787-106.24 46.507-197.547 92.587-243.627zM810.667 832c-11.967 12.393-28.73 20.088-47.29 20.088-7.033 0-13.809-1.105-20.162-3.151l0.465 0.129c-118.613-42.667-437.333-34.56-499.627 16.64v0c56.747-55.467 83.627-151.467 97.28-244.48 51.127-7.875 110.107-12.373 170.137-12.373 0.186 0 0.372 0 0.558 0h-0.029c173.227 0 346.88 34.987 416.853 104.96z" />
<glyph unicode="&#xe950;" d="M912.64 215.040c1.787-5.695 2.817-12.244 2.817-19.034 0-18.25-7.44-34.762-19.452-46.668l-0.005-0.005-117.76-116.907c-95.573 93.013-125.013 372.907-93.013 588.8 106.24 15.787 197.547 46.507 243.627 92.587v0c-50.773-61.44-56.747-380.16-16.213-498.773zM351.573 452.693c0 114.773-14.507 320.853-105.387 412.16l-118.187-118.187c-12.325-11.958-19.973-28.675-19.973-47.178 0-7.39 1.22-14.495 3.469-21.124l-0.136 0.463c17.721-63.037 27.908-135.429 27.908-210.2 0-5.903-0.063-11.791-0.19-17.663l0.015 0.876c0-162.133-29.867-253.867-42.667-270.507v0c45.227 47.36 136.96 78.080 244.907 93.867 6.633 47.121 10.419 101.554 10.419 156.872 0 7.251-0.065 14.487-0.195 21.707l0.015-1.085z" />
<glyph unicode="&#xe951;" d="M938.667 618.667h-597.333l170.667 170.667h298.667c0.070 0 0.153 0 0.236 0 28.166 0 52.56-16.149 64.428-39.694l0.189-0.414zM150.613 146.773c12.057-23.958 36.451-40.107 64.617-40.107 0.083 0 0.166 0 0.249 0h298.654l170.667 170.667h-599.467zM813.227 86.613c23.41 11.77 39.357 35.298 40.105 62.622l0.002 0.098v298.667l-170.667 170.667v-597.333zM210.773 809.387c-23.958-12.057-40.107-36.451-40.107-64.617 0-0.083 0-0.166 0-0.249v0.013-298.667l170.667-170.667v599.467z" />
<glyph unicode="&#xe952;" d="M938.667 618.667l-85.333-170.667-170.667 170.667zM341.333 277.333l-170.667 170.667-85.333-170.667zM682.667 277.333l-170.667-170.667 170.667-85.333zM341.333 618.667l170.667 170.667-170.667 85.333z" />
<glyph unicode="&#xe953;" d="M341.333 874.667v-597.333h-256v314.027c0 0.027 0 0.058 0 0.090 0 18.122 7.336 34.531 19.201 46.418l-0.001-0.001zM682.667 618.667v-597.333l236.8 236.8c11.864 11.886 19.2 28.295 19.2 46.417 0 0.032 0 0.063 0 0.095v-0.005 314.027z" />
<glyph unicode="&#xe954;" d="M938.667 618.667h-597.333v256h314.027c0.027 0 0.058 0 0.090 0 18.122 0 34.531-7.336 46.418-19.201l-0.001 0.001zM85.333 277.333l236.8-236.8c11.886-11.864 28.295-19.2 46.417-19.2 0.032 0 0.063 0 0.095 0h314.022v256z" />
<glyph unicode="&#xe955;" d="M85.333 448l341.333-102.4 512 102.4-341.333 102.4-512-102.4z" />
<glyph unicode="&#xe956;" d="M891.733 609.28l-806.4-161.28v208.213c0.066 28.151 20.022 51.621 46.555 57.108l0.378 0.065 747.52 149.333c3.078 0.693 6.613 1.090 10.241 1.090 26.863 0 48.64-21.777 48.64-48.64 0-0.083 0-0.167-0.001-0.25v0.013-148.48c-0.066-28.151-20.022-51.621-46.555-57.108l-0.378-0.065zM938.667 239.787v208.213l-806.4-161.28c-26.911-5.552-46.867-29.023-46.933-57.166v-148.487c0-0.070-0.001-0.154-0.001-0.237 0-26.863 21.777-48.64 48.64-48.64 3.628 0 7.163 0.397 10.564 1.15l-0.323-0.060 747.52 149.333c26.911 5.552 46.867 29.023 46.933 57.166v0.007z" />
<glyph unicode="&#xe957;" d="M341.333 21.333c-23.564 0-42.667 19.103-42.667 42.667v0 512c0 23.564 19.103 42.667 42.667 42.667s42.667-19.103 42.667-42.667v0-512c0-23.564-19.103-42.667-42.667-42.667v0z" />
<glyph unicode="&#xe958;" d="M170.667 320c-23.564 0-42.667 19.103-42.667 42.667v0 341.333c0 23.564 19.103 42.667 42.667 42.667s42.667-19.103 42.667-42.667v0-341.333c0-23.564-19.103-42.667-42.667-42.667v0zM554.667 149.333v682.667c0 23.564-19.103 42.667-42.667 42.667s-42.667-19.103-42.667-42.667v0-682.667c0-23.564 19.103-42.667 42.667-42.667s42.667 19.103 42.667 42.667v0zM725.333 277.333v469.333c0 23.564-19.103 42.667-42.667 42.667s-42.667-19.103-42.667-42.667v0-469.333c0-23.564 19.103-42.667 42.667-42.667s42.667 19.103 42.667 42.667v0zM896 192v341.333c0 23.564-19.103 42.667-42.667 42.667s-42.667-19.103-42.667-42.667v0-341.333c0-23.564 19.103-42.667 42.667-42.667s42.667 19.103 42.667 42.667v0z" />
<glyph unicode="&#xe959;" d="M512 874.667c-431.787-276.48-512-742.4 0-853.333 512 110.933 431.787 576.853 0 853.333z" />
<glyph unicode="&#xe95a;" d="M512 21.333l354.56 354.56c5.547-160.427-102.827-300.373-354.56-354.56zM822.613 545.28c-24.68 49.572-53.095 92.304-86.076 131.027l0.743-0.894-225.28-227.413v-213.333zM389.973 783.36c-38.395-33.109-72.894-68.42-104.199-106.459l-1.188-1.487 227.413-227.413v213.333zM512 874.667v-213.333l122.027 122.027c-36.236 31.739-76.066 61.803-118.009 88.877l-4.018 2.429zM157.44 375.893l354.56-354.56v213.333l-310.613 310.613c-25.021-49.338-40.917-107.173-43.908-168.398l-0.038-0.988z" />
<glyph unicode="&#xe95b;" d="M471.893 763.733c13.5 22.776 37.955 37.806 65.92 37.806s52.42-15.030 65.726-37.453l0.194-0.353 160-277.76 160.427-277.76c6.397-10.893 10.175-23.992 10.175-37.973 0-41.921-33.965-75.91-75.878-75.947h-640.004c-41.916 0.037-75.882 34.025-75.882 75.947 0 13.981 3.778 27.080 10.369 38.332l-0.194-0.358 160.427 277.76z" />
<glyph unicode="&#xe95c;" d="M228.267 430.933c13.391 22.798 37.79 37.861 65.707 37.861s52.316-15.063 65.513-37.505l0.194-0.356 64.427-110.933 64-111.36c6.551-10.995 10.423-24.245 10.423-38.4 0-41.944-34.002-75.947-75.947-75.947-0.064 0-0.129 0-0.193 0h-255.99c-41.916 0.037-75.882 34.025-75.882 75.947 0 13.981 3.778 27.080 10.369 38.332l-0.194-0.358 63.573 111.787z" />
<glyph unicode="&#xe95d;" d="M938.667 448c0-235.641-191.025-426.667-426.667-426.667s-426.667 191.025-426.667 426.667c0 235.641 191.025 426.667 426.667 426.667s426.667-191.025 426.667-426.667z" />
<glyph unicode="&#xe95e;" d="M512 118.187c-182.053 0.243-329.571 147.76-329.813 329.79v0.023c0 17.673 14.327 32 32 32s32-14.327 32-32v0c0-146.805 119.009-265.813 265.813-265.813s265.813 119.009 265.813 265.813c0 146.805-119.009 265.813-265.813 265.813v0c-17.673 0-32 14.327-32 32s14.327 32 32 32v0c182.151 0 329.813-147.662 329.813-329.813s-147.662-329.813-329.813-329.813v0z" />
<glyph unicode="&#xe95f;" d="M512 241.493c-17.673 0-32 14.327-32 32s14.327 32 32 32v0c78.704 0 142.507 63.802 142.507 142.507s-63.802 142.507-142.507 142.507v0c-17.673 0-32 14.327-32 32s14.327 32 32 32v0c114.050 0 206.507-92.456 206.507-206.507s-92.456-206.507-206.507-206.507v0z" />
<glyph unicode="&#xe960;" d="M320 682.667h106.667c23.564 0 42.667-19.103 42.667-42.667v0-380.587c0-23.564-19.103-42.667-42.667-42.667v0h-106.667c-0.007 0-0.016 0-0.025 0-128.403 0-232.719 103.127-234.64 231.072l-0.002 0.181c0 129.603 105.064 234.667 234.667 234.667v0z" />
<glyph unicode="&#xe961;" d="M704 213.333h-106.667c-23.564 0-42.667 19.103-42.667 42.667v0 380.587c0 23.564 19.103 42.667 42.667 42.667v0h106.667c0.007 0 0.016 0 0.025 0 128.403 0 232.719-103.127 234.64-231.072l0.002-0.181c0-129.603-105.064-234.667-234.667-234.667v0z" />
<glyph unicode="&#xe962;" d="M686.080 416h-341.333c-17.673 0-32 14.327-32 32s14.327 32 32 32v0h341.333c17.673 0 32-14.327 32-32s-14.327-32-32-32v0z" />
<glyph unicode="&#xe963;" d="M441.6 56.32l-291.84 291.84c-15.088 14.997-24.427 35.764-24.427 58.712 0 11.616 2.393 22.674 6.712 32.706l-0.206-0.538 17.493 42.667c13.253 30.271 42.744 51.138 77.165 51.626l0.062 0.001h420.693l-185.6 185.6c-13.475 13.57-21.803 32.266-21.803 52.907s8.328 39.337 21.807 52.911l-0.004-0.004 15.36 14.933c13.502 13.45 32.126 21.766 52.693 21.766s39.192-8.316 52.696-21.768l291.838-291.838c15.088-14.997 24.427-35.764 24.427-58.712 0-11.616-2.393-22.674-6.712-32.706l0.206 0.538-17.493-42.667c-13.253-30.271-42.744-51.138-77.165-51.626l-0.062-0.001h-420.693l185.6-185.6c13.475-13.57 21.803-32.266 21.803-52.907s-8.328-39.337-21.807-52.911l0.004 0.004-15.36-14.933c-13.502-13.45-32.126-21.766-52.693-21.766s-39.192 8.316-52.696 21.768l0.002-0.002z" />
<glyph unicode="&#xe964;" d="M376.747 362.667h273.493l-200.533 170.667h-223.147c-34.483-0.488-63.974-21.355-77.012-51.079l-0.214-0.548-17.493-42.667c-4.114-9.495-6.507-20.552-6.507-32.168 0-22.948 9.338-43.715 24.422-58.708l291.844-291.844c13.502-13.45 32.126-21.766 52.693-21.766s39.192 8.316 52.696 21.768l15.358 15.358c13.45 13.502 21.766 32.126 21.766 52.693s-8.316 39.192-21.768 52.696l0.002-0.002z" />
<glyph unicode="&#xe965;" d="M977.493 562.773h-200.533c-77.986 2.423-140.284 66.224-140.284 144.574 0 3.476 0.123 6.923 0.364 10.338l-0.026-0.459v205.227z" />
<glyph unicode="&#xe966;" d="M215.467 320c-96.142 0-174.080-77.938-174.080-174.080s77.938-174.080 174.080-174.080v0c96.142 0 174.080 77.938 174.080 174.080s-77.938 174.080-174.080 174.080v0zM279.040 112.64h-31.573v-31.147c-0.893-16.956-14.859-30.367-31.958-30.367-0.765 0-1.524 0.027-2.276 0.080l0.101-0.006c-17.484 0.463-31.537 14.516-31.999 31.957l-0.001 0.043v31.147h-30.293c-17.617 0.669-31.644 15.112-31.644 32.831 0 0.758 0.026 1.511 0.076 2.256l-0.005-0.101c0.9 17.447 14.938 31.337 32.364 31.998l0.062 0.002h31.147v31.147c1.94 16.464 15.813 29.115 32.64 29.115s30.7-12.651 32.625-28.961l0.015-0.155v-31.147h31.147c17.494-0.234 31.585-14.47 31.585-31.997 0-0.301-0.004-0.601-0.012-0.9l0.001 0.044c0.065-0.767 0.101-1.66 0.101-2.562 0-17.794-14.333-32.241-32.084-32.425h-0.017z" />
<glyph unicode="&#xe967;" d="M977.92 497.493h-200.96c-113.213 3.189-203.774 95.726-203.774 209.415 0 3.629 0.092 7.237 0.275 10.821l-0.020-0.503v206.080h-209.067c-132.324-1.678-238.947-109.338-238.947-241.902 0-0.906 0.005-1.812 0.015-2.716l-0.001 0.138v-366.933c0-5.547 0-11.52 0-17.067 24.991 15.805 55.41 25.185 88.019 25.185 0.706 0 1.411-0.004 2.114-0.013l-0.107 0.001c0.010 0 0.022 0 0.034 0 94.257 0 170.667-76.41 170.667-170.667 0-1.2-0.012-2.398-0.037-3.592l0.003 0.178c-0.301-29.028-7.525-56.302-20.093-80.338l0.466 0.978h373.76c132.324 1.678 238.947 109.338 238.947 241.902 0 0.906-0.005 1.812-0.015 2.716l0.001-0.138z" />
<glyph unicode="&#xe968;" d="M478.293 766.72c16.864-41.318 56.712-69.917 103.246-69.973h128.007c84.766-0.073 158.567-46.95 196.96-116.18l0.587-1.153c-7.856 123.304-109.678 220.365-234.218 220.587h-207.809z" />
<glyph unicode="&#xe969;" d="M713.387 699.307h-128c-0.007 0-0.014 0-0.022 0-46.439 0-86.188 28.646-102.54 69.231l-0.264 0.743-13.227 35.84c-16.937 41.012-56.548 69.381-102.806 69.547h-85.354c-0.127 0-0.277 0-0.427 0-107.924 0-195.413-87.49-195.413-195.413 0 0 0 0 0 0v0-433.067c0.243-124.235 101.011-224.853 225.28-224.853 0 0 0 0 0 0h402.773c0 0 0 0 0 0 124.269 0 225.037 100.618 225.28 224.83v227.863c0 0.127 0 0.277 0 0.427 0 124.183-100.67 224.853-224.853 224.853-0.15 0-0.3 0-0.45 0h0.023zM609.28 355.84h-66.133v-65.28c0.008-0.258 0.012-0.561 0.012-0.865 0-16.435-13.088-29.813-29.409-30.281l-0.043-0.001c-0.004 0-0.008 0-0.012 0-16.43 0-29.806 13.081-30.28 29.396l-0.001 0.044v67.84h-68.267c-16.731 0-30.293 13.563-30.293 30.293s13.563 30.293 30.293 30.293v0h65.707v65.707c-0.008 0.258-0.012 0.561-0.012 0.865 0 16.435 13.088 29.813 29.409 30.281l0.043 0.001c0.51 0.032 1.106 0.050 1.707 0.050 16.259 0 29.44-13.181 29.44-29.44 0-0.017 0-0.035 0-0.052v0.003-67.84h68.267c16.731 0 30.293-13.563 30.293-30.293s-13.563-30.293-30.293-30.293v0z" />
<glyph unicode="&#xe96a;" d="M577.707 618.667h234.24c69.986 0 126.72-56.734 126.72-126.72v-343.893c0-69.986-56.734-126.72-126.72-126.72h-234.24c-69.986 0-126.72 56.734-126.72 126.72v343.893c0 69.986 56.734 126.72 126.72 126.72z" />
<glyph unicode="&#xe96b;" d="M386.987 490.667c0.207 103.524 82.862 187.674 185.784 190.288l0.243 0.005v65.707c0 70.692-57.308 128-128 128v0h-231.68c-70.692 0-128-57.308-128-128v0-341.333c0-70.692 57.308-128 128-128v0h174.933z" />
<glyph unicode="&#xe96c;" d="M773.547 352h-37.547v37.547c0 17.673-14.327 32-32 32s-32-14.327-32-32v0-37.547h-37.547c-17.673 0-32-14.327-32-32s14.327-32 32-32v0h37.547v-37.547c0-17.673 14.327-32 32-32s32 14.327 32 32v0 37.547h37.547c17.673 0 32 14.327 32 32s-14.327 32-32 32v0z" />
<glyph unicode="&#xe96d;" d="M353.28 802.56h317.867c128.66 0 232.96-104.3 232.96-232.96v-315.307c0-128.66-104.3-232.96-232.96-232.96h-317.867c-128.66 0-232.96 104.3-232.96 232.96v315.307c0 128.66 104.3 232.96 232.96 232.96z" />
<glyph unicode="&#xe96e;" d="M356.267 728.32c-17.673 0-32 14.327-32 32v0 78.080c0 17.673 14.327 32 32 32s32-14.327 32-32v0-78.080c0-17.673-14.327-32-32-32v0z" />
<glyph unicode="&#xe96f;" d="M667.733 728.32c-0.128-0.002-0.279-0.003-0.43-0.003-17.437 0-31.573 14.136-31.573 31.573 0 0.151 0.001 0.302 0.003 0.452v-0.023 78.080c0 17.673 14.327 32 32 32s32-14.327 32-32v0-78.080c0-17.673-14.327-32-32-32v0z" />
<glyph unicode="&#xe970;" d="M609.28 378.88v0h-65.707v-65.707c0.008-0.258 0.012-0.561 0.012-0.865 0-16.435-13.088-29.813-29.409-30.281l-0.043-0.001c-0.004 0-0.008 0-0.012 0-16.43 0-29.806 13.081-30.28 29.396l-0.001 0.044v67.84h-68.267c-16.731 0-30.293 13.563-30.293 30.293s13.563 30.293 30.293 30.293v0h65.707v65.28c-0.008 0.262-0.013 0.57-0.013 0.879 0 16.52 13.041 29.995 29.39 30.692l0.063 0.002c0.382 0.017 0.83 0.027 1.28 0.027 16.495 0 29.867-13.372 29.867-29.867 0-0.010 0-0.019 0-0.029v0.002-67.84h68.267c15.34-1.87 27.106-14.814 27.106-30.507s-11.766-28.637-26.958-30.492l-0.148-0.015z" />
<glyph unicode="&#xe971;" d="M789.333 490.667h85.333c23.564 0 42.667-19.103 42.667-42.667v0-85.333c0-23.564-19.103-42.667-42.667-42.667v0h-85.333v170.667z" />
<glyph unicode="&#xe972;" d="M917.333 704v-85.333c0-23.564-19.103-42.667-42.667-42.667v0h-85.333v170.667h85.333c23.564 0 42.667-19.103 42.667-42.667v0z" />
<glyph unicode="&#xe973;" d="M666.453 21.333h-436.907c-67.865 0-122.88 55.015-122.88 122.88v0 607.573c0 67.865 55.015 122.88 122.88 122.88v0h436.907c67.865 0 122.88-55.015 122.88-122.88v0-607.573c0-67.865-55.015-122.88-122.88-122.88v0zM448 661.333c-47.128 0-85.333-38.205-85.333-85.333s38.205-85.333 85.333-85.333c47.128 0 85.333 38.205 85.333 85.333v0c0 47.128-38.205 85.333-85.333 85.333v0zM587.52 277.333c0.768-0.049 1.666-0.077 2.57-0.077 23.564 0 42.667 19.103 42.667 42.667 0 5.233-0.942 10.246-2.666 14.879l0.096-0.295c-30.862 67.529-97.822 113.608-175.544 113.608-2.336 0-4.662-0.042-6.978-0.124l0.335 0.009c-1.578 0.046-3.436 0.073-5.299 0.073-77.616 0-144.524-45.852-175.112-111.946l-0.496-1.193c-11.093-27.733 11.52-57.6 65.28-57.6z" />
<glyph unicode="&#xe974;" d="M336.243 873.939l347.302 1.879c140.44 0.76 254.906-112.473 255.665-252.914l1.865-344.742c0.76-140.44-112.473-254.906-252.914-255.665l-347.302-1.879c-140.44-0.76-254.906 112.473-255.665 252.914l-1.865 344.742c-0.76 140.44 112.473 254.906 252.914 255.665z" />
<glyph unicode="&#xe975;" d="M785.067 490.667l-194.133 85.333c-6.851 3.162-11.52 9.973-11.52 17.874 0 0.016 0 0.032 0 0.048v-0.003 103.68c0 0.029 0 0.063 0 0.097 0 14.597-5.864 27.825-15.366 37.456l0.006-0.006-19.627 20.053c-7.753 7.924-18.556 12.837-30.507 12.837s-22.753-4.913-30.499-12.83l-0.008-0.008-19.627-20.053c-9.496-9.625-15.36-22.852-15.36-37.45 0-0.034 0-0.068 0-0.102v0.005-103.68c0.002-0.096 0.003-0.209 0.003-0.322 0-7.827-4.683-14.56-11.401-17.55l-0.122-0.049-197.973-85.333c-10.326-4.549-17.42-14.664-17.493-26.444v-67.422c0.2-15.87 13.112-28.659 29.011-28.659 4.003 0 7.817 0.811 11.286 2.277l-0.19-0.071 159.573 69.547c2.266 0.989 4.906 1.565 7.681 1.565 10.79 0 19.546-8.707 19.626-19.478v-104.115c0-0.037 0-0.081 0-0.125 0-6.133-2.813-11.608-7.219-15.207l-0.035-0.028-75.093-61.867c-6.025-5.195-9.816-12.837-9.816-21.366 0-0.139 0.001-0.277 0.003-0.415v0.021-63.573c0.294-15.090 12.596-27.21 27.728-27.21 6.466 0 12.415 2.213 17.131 5.922l-0.060-0.045 93.013 75.947c4.54 3.773 10.429 6.064 16.853 6.064s12.314-2.29 16.897-6.098l-0.043 0.035 93.44-75.947c4.24-2.765 9.431-4.41 15.005-4.41 14.616 0 26.592 11.307 27.656 25.651l0.005 0.092v63.573c-0.051 8.724-4.002 16.515-10.196 21.724l-0.044 0.036-69.12 56.32c-4.441 3.627-7.254 9.103-7.254 15.235 0 0.044 0 0.088 0 0.131v-0.007 107.093c0.080 10.779 8.836 19.485 19.626 19.485 2.775 0 5.415-0.576 7.807-1.614l-0.127 0.049 155.733-67.84c3.279-1.395 7.092-2.205 11.095-2.205 15.899 0 28.811 12.788 29.011 28.64v67.432c0.031 0.502 0.049 1.089 0.049 1.681 0 11.045-6.172 20.648-15.255 25.55l-0.154 0.076z" />
<glyph unicode="&#xe976;" d="M880.64 504.32l-261.973 114.347c-9.339 4.306-15.719 13.56-15.787 24.311v142.089c-0.146 19.781-8.096 37.677-20.92 50.787l0.013-0.013-27.307 26.88c-10.397 10.668-24.906 17.285-40.96 17.285s-30.563-6.617-40.948-17.273l-0.012-0.012-26.453-26.88c-12.164-13.061-19.631-30.638-19.631-49.959 0-0.286 0.002-0.572 0.005-0.857v0.043-140.373c0.031-0.483 0.049-1.047 0.049-1.615 0-10.932-6.631-20.315-16.090-24.346l-0.173-0.065-267.093-114.347c-13.906-5.98-23.467-19.562-23.467-35.377 0-0.013 0-0.025 0-0.038v0.002-91.307c0.139-21.338 17.469-38.581 38.826-38.581 5.553 0 10.833 1.166 15.61 3.265l-0.249-0.098 213.333 93.867c3.139 1.419 6.807 2.246 10.667 2.246 14.61 0 26.453-11.844 26.453-26.453 0-0.040 0-0.079 0-0.119v0.006-140.373c0.001-0.090 0.002-0.195 0.002-0.301 0-8.209-3.622-15.572-9.356-20.578l-0.032-0.028-99.84-82.773c-8.357-6.781-13.653-17.051-13.653-28.558 0-0.010 0-0.020 0-0.030v0.002-85.333c0.099-20.426 16.68-36.946 37.12-36.946 8.932 0 17.127 3.155 23.532 8.411l-0.065-0.052 125.867 102.4c6.056 5.155 13.968 8.29 22.613 8.29s16.558-3.135 22.663-8.331l-0.050 0.041 125.867-102.4c6.34-5.204 14.535-8.359 23.467-8.359 20.44 0 37.021 16.52 37.12 36.936v85.342c0.004 0.191 0.006 0.417 0.006 0.643 0 11.322-5.313 21.403-13.582 27.886l-0.077 0.058-93.44 76.373c-6.008 4.889-9.816 12.283-9.816 20.566 0 0.12 0.001 0.239 0.002 0.359v-0.018 144.213c0 0.033 0 0.073 0 0.113 0 14.61 11.844 26.453 26.453 26.453 3.86 0 7.527-0.827 10.834-2.313l-0.167 0.067 209.92-91.307c4.528-2.002 9.808-3.168 15.361-3.168 21.357 0 38.687 17.244 38.826 38.568v91.32c0 0.011 0 0.023 0 0.036 0 15.815-9.561 29.397-23.217 35.282l-0.249 0.096z" />
<glyph unicode="&#xe977;" d="M618.667 618.667c-9.339 4.306-15.719 13.56-15.787 24.311v142.089c-0.146 19.781-8.096 37.677-20.92 50.787l0.013-0.013-27.307 26.88c-10.397 10.668-24.906 17.285-40.96 17.285s-30.563-6.617-40.948-17.273l-0.012-0.012-26.453-26.88c-12.164-13.061-19.631-30.638-19.631-49.959 0-0.286 0.002-0.572 0.005-0.857v0.043-140.373c0.031-0.483 0.049-1.047 0.049-1.615 0-10.932-6.631-20.315-16.090-24.346l-0.173-0.065-267.093-114.347c-13.906-5.98-23.467-19.562-23.467-35.377 0-0.013 0-0.025 0-0.038v0.002-91.307c0.139-21.338 17.469-38.581 38.826-38.581 5.553 0 10.833 1.166 15.61 3.265l-0.249-0.098 213.333 93.867c3.139 1.419 6.807 2.246 10.667 2.246 14.61 0 26.453-11.844 26.453-26.453 0-0.040 0-0.079 0-0.119v0.006-53.333l286.72 217.6z" />
<glyph unicode="&#xe978;" d="M290.987 874.667h442.027c101.797 0 184.32-82.523 184.32-184.32v-484.693c0-101.797-82.523-184.32-184.32-184.32h-442.027c-101.797 0-184.32 82.523-184.32 184.32v484.693c0 101.797 82.523 184.32 184.32 184.32z" />
<glyph unicode="&#xe979;" d="M106.667 624.213h810.667v-64h-810.667v64z" />
<glyph unicode="&#xe97a;" d="M384.427 695.467h254.72c57.025 0 103.253-46.228 103.253-103.253s-46.228-103.253-103.253-103.253h-254.72c-57.025 0-103.253 46.228-103.253 103.253s46.228 103.253 103.253 103.253z" />
<glyph unicode="&#xe97b;" d="M387.413 576.427h249.173c49.013 0 88.747-39.733 88.747-88.747v-250.027c0-49.013-39.733-88.747-88.747-88.747h-249.173c-49.013 0-88.747 39.733-88.747 88.747v250.027c0 49.013 39.733 88.747 88.747 88.747z" />
<glyph unicode="&#xe97c;" d="M170.667 249.173c-23.564 0-42.667 19.103-42.667 42.667v0 170.667c0 23.564 19.103 42.667 42.667 42.667s42.667-19.103 42.667-42.667v0-170.667c0-23.564-19.103-42.667-42.667-42.667v0z" />
<glyph unicode="&#xe97d;" d="M387.413 149.333v0-85.333c0-23.564 19.103-42.667 42.667-42.667s42.667 19.103 42.667 42.667v0 85.333z" />
<glyph unicode="&#xe97e;" d="M636.587 149.333h-81.92v-85.333c0-23.564 19.103-42.667 42.667-42.667s42.667 19.103 42.667 42.667v0 85.333z" />
<glyph unicode="&#xe97f;" d="M853.333 249.173c-23.564 0-42.667 19.103-42.667 42.667v0 170.667c0 23.564 19.103 42.667 42.667 42.667s42.667-19.103 42.667-42.667v0-170.667c0-23.564-19.103-42.667-42.667-42.667v0z" />
<glyph unicode="&#xe980;" d="M590.080 636.16c0.409-0.008 0.891-0.012 1.375-0.012 41.305 0 75.036 32.427 77.124 73.213l0.008 0.186c-1.427 91.511-75.944 165.147-167.661 165.147-1.057 0-2.112-0.010-3.164-0.029l0.158 0.002c-0.894 0.017-1.949 0.027-3.006 0.027-91.717 0-166.234-73.636-167.659-165.013l-0.002-0.134c2.096-40.972 35.827-73.399 77.132-73.399 0.483 0 0.966 0.004 1.447 0.013l-0.072-0.001z" />
<glyph unicode="&#xe981;" d="M773.547 154.453l-193.28-113.493c-20.929-12.291-46.097-19.55-72.96-19.55s-52.031 7.259-73.649 19.922l0.689-0.373-193.707 113.493c-38.939 23.694-65.61 64.22-69.931 111.216l-0.042 0.571-32.853 364.8c-0.386 3.955-0.607 8.55-0.607 13.196 0 61.073 38.077 113.253 91.786 134.096l0.981 0.335 225.707 85.333c15.34 5.885 33.085 9.293 51.627 9.293s36.286-3.408 52.643-9.633l-1.017 0.34 225.707-85.333c54.695-21.602 92.686-74.004 92.686-135.28 0-4.346-0.191-8.648-0.565-12.897l0.039 0.55-32-364.8c-4.585-47.804-31.756-88.406-70.582-111.418l-0.672-0.368z" />
<glyph unicode="&#xe982;" d="M735.573 283.733l-59.307 125.867c-1.181 6.327-4.053 11.845-8.126 16.234l0.019-0.021-131.84 278.187c-5.549 10.879-16.623 18.227-29.424 18.347h-0.016c-0.001 0-0.002 0-0.003 0-12.728 0-23.673-7.635-28.505-18.574l-0.079-0.199-191.573-420.267c-1.847-3.921-2.925-8.517-2.925-13.365 0-13.019 7.775-24.223 18.935-29.22l0.203-0.081c3.711-1.886 8.091-2.991 12.73-2.991 0.175 0 0.349 0.002 0.523 0.005h-0.026c12.83 0.052 23.873 7.646 28.931 18.575l0.082 0.198 52.48 115.2h225.28l55.040-115.627c4.638-12.32 16.325-20.926 30.023-20.926 17.673 0 32 14.327 32 32 0 5.986-1.643 11.587-4.504 16.379l0.081-0.146zM426.667 436.053l81.067 178.347 85.333-178.347z" />
<glyph unicode="&#xe983;" d="M784.64 778.667l-225.707 85.333c-13.796 5.972-29.806 9.812-46.606 10.654l-0.327 0.013v-853.333c25.842 0.904 49.826 8.072 70.724 20.022l-0.751-0.395 193.28 113.493c39.497 23.38 66.669 63.983 71.208 111.198l0.046 0.588 32 364.8c0.302 3.509 0.474 7.593 0.474 11.718 0 61.898-38.767 114.742-93.346 135.575l-0.995 0.334z" />
<glyph unicode="&#xe984;" d="M652.8 742.4c21.34 26.48 36.421 58.875 42.493 94.345l0.174 1.228c0.27 1.552 0.425 3.339 0.425 5.163 0 17.437-14.136 31.573-31.573 31.573-4.145 0-8.104-0.799-11.731-2.251l0.213 0.075c-35.401-12.878-65.18-34.003-88.067-61.132l-0.253-0.308c-22.662-27.308-38.002-61.448-42.574-98.913l-0.092-0.927c-0.032-0.525-0.050-1.14-0.050-1.758 0-17.202 13.945-31.147 31.147-31.147 3.214 0 6.314 0.487 9.23 1.39l-0.221-0.059c37.115 11.372 68.175 33.321 90.572 62.305l0.308 0.415z" />
<glyph unicode="&#xe985;" d="M801.28 529.067c7.988 7.763 12.945 18.608 12.945 30.612 0 13.974-6.718 26.38-17.101 34.162l-0.111 0.079c-28.391 23.46-64.152 38.952-103.349 42.61l-0.758 0.057c-58.027 3.84-104.96-34.133-160.853-34.133s-90.453 34.133-152.32 34.133c-71.181-4.586-132.119-44.517-165.871-102.273l-0.529-0.98c-58.88-88.747-48.64-256 44.8-401.92 33.707-51.627 78.507-110.080 137.387-110.080 52.053 0 66.56 33.707 137.387 33.707s85.333-34.133 136.107-33.707c58.88 0 105.813 64.853 139.52 116.48 11.789 17.183 23.427 37.024 33.679 57.675l1.308 2.912c2.274 5.049 3.599 10.946 3.599 17.151 0 14.906-7.644 28.027-19.225 35.656l-0.16 0.099c-49.044 32.312-80.966 87.135-80.966 149.414 0 50.371 20.882 95.864 54.461 128.296l0.052 0.050z" />
<glyph unicode="&#xe986;" d="M768 24.747l-217.6 124.587c-11.025 6.429-24.269 10.224-38.4 10.224s-27.375-3.795-38.769-10.422l0.369 0.198-217.6-124.587c-11.016-6.469-24.262-10.29-38.401-10.29-42.283 0-76.585 34.17-76.799 76.403v601.193c0.243 104.913 85.347 189.867 190.293 189.867 0 0 0 0 0.001 0h361.813c104.763-0.242 189.625-85.104 189.867-189.844v-601.196c-0.351-42.148-34.6-76.179-76.797-76.179-13.967 0-27.062 3.728-38.347 10.244l0.371-0.197z" />
<glyph unicode="&#xe987;" d="M472.747 384c-8.483 0.028-16.164 3.444-21.764 8.964l0.004-0.004-66.987 63.573c-5.782 5.789-9.359 13.784-9.359 22.613s3.576 16.824 9.359 22.614v0c5.789 5.782 13.784 9.359 22.613 9.359s16.824-3.576 22.614-9.359v0l44.8-42.667 149.333 148.053c5.846 8.439 15.479 13.896 26.386 13.896 17.673 0 32-14.327 32-32 0-11.668-6.245-21.877-15.574-27.468l-0.145-0.081-170.667-170.667c-5.36-4.332-12.258-6.955-19.769-6.955-1.001 0-1.992 0.047-2.969 0.138l0.125-0.009z" />
<glyph unicode="&#xe988;" d="M192.427 533.333h640v-415.147c0-53.491-43.363-96.853-96.853-96.853v0h-446.293c-53.491 0-96.853 43.363-96.853 96.853v0 415.147z" />
<glyph unicode="&#xe989;" d="M194.987 876.8h634.027c60.56 0 109.653-49.093 109.653-109.653v-127.573c0-60.56-49.093-109.653-109.653-109.653h-634.027c-60.56 0-109.653 49.093-109.653 109.653v127.573c0 60.56 49.093 109.653 109.653 109.653z" />
<glyph unicode="&#xe98a;" d="M606.293 327.253h-153.173c-17.673 0-32 14.327-32 32s14.327 32 32 32v0h153.173c17.673 0 32-14.327 32-32s-14.327-32-32-32v0z" />
<glyph unicode="&#xe98b;" d="M388.267 67.413h368.213c101.033 1.907 182.205 84.259 182.205 185.569 0 0.911-0.007 1.821-0.020 2.728l0.002-0.137v380.16c0.011 0.768 0.018 1.675 0.018 2.584 0 101.225-81.221 183.479-182.048 185.147l-0.157 0.002h-368.213c-100.983-1.671-182.205-83.925-182.205-185.15 0-0.908 0.007-1.815 0.020-2.721l-0.002 0.137v-241.493c-0.136-1.092-0.213-2.357-0.213-3.639 0-17.202 13.945-31.147 31.147-31.147s31.147 13.945 31.147 31.147c0 1.282-0.078 2.547-0.228 3.789l0.015-0.149v241.493c-0.004 0.386-0.007 0.842-0.007 1.298 0 66.881 53.619 121.239 120.215 122.433l0.112 0.002h368.213c66.708-1.195 120.327-55.553 120.327-122.435 0-0.456-0.002-0.912-0.007-1.368l0.001 0.069v-380.16c0.004-0.388 0.007-0.847 0.007-1.307 0-66.967-53.569-121.422-120.194-122.851l-0.133-0.002h-368.213c-51.16 0.394-94.658 32.77-111.517 78.104l-0.27 0.829c-4.371 12.263-15.883 20.883-29.407 20.883-4.816 0-9.376-1.093-13.447-3.044l0.187 0.081c-11.688-5.074-19.715-16.515-19.715-29.831 0-4.64 0.975-9.052 2.73-13.043l-0.082 0.208c26.25-69.594 92.294-118.196 169.69-118.196 0.644 0 1.286 0.003 1.928 0.010l-0.098-0.001z" />
<glyph unicode="&#xe98c;" d="M238.933 308.907c-9.222 0.358-17.395 4.567-23.006 11.053l-0.034 0.040-122.88 128c-4.804 5.565-7.731 12.869-7.731 20.856 0 8.437 3.265 16.112 8.601 21.829l-0.017-0.019c5.789 5.782 13.784 9.359 22.613 9.359s16.824-3.576 22.614-9.359v0l99.84-103.253 99.84 103.253c5.789 5.782 13.784 9.359 22.613 9.359s16.824-3.576 22.614-9.359v0c5.057-5.635 8.149-13.123 8.149-21.333s-3.092-15.698-8.175-21.363l0.026 0.030-122.027-128c-5.645-6.527-13.818-10.735-22.98-11.091l-0.060-0.002z" />
<glyph unicode="&#xe98d;" d="M635.733 67.413h-368.213c-101.033 1.907-182.205 84.259-182.205 185.569 0 0.911 0.007 1.821 0.020 2.728l-0.002-0.137v380.16c-0.011 0.768-0.018 1.675-0.018 2.584 0 101.225 81.221 183.479 182.048 185.147l0.157 0.002h368.213c100.983-1.671 182.205-83.925 182.205-185.15 0-0.908-0.007-1.815-0.020-2.721l0.002 0.137v-241.493c0.136-1.092 0.213-2.357 0.213-3.639 0-17.202-13.945-31.147-31.147-31.147s-31.147 13.945-31.147 31.147c0 1.282 0.078 2.547 0.228 3.789l-0.015-0.149v241.493c0.004 0.386 0.007 0.842 0.007 1.298 0 66.881-53.619 121.239-120.215 122.433l-0.112 0.002h-368.213c-66.708-1.195-120.327-55.553-120.327-122.435 0-0.456 0.002-0.912 0.007-1.368l-0.001 0.069v-380.16c-0.004-0.388-0.007-0.847-0.007-1.307 0-66.967 53.569-121.422 120.194-122.851l0.133-0.002h368.213c51.16 0.394 94.658 32.77 111.517 78.104l0.27 0.829c4.589 11.843 15.89 20.088 29.117 20.088 4.11 0 8.033-0.796 11.626-2.242l-0.209 0.074c11.688-5.074 19.715-16.515 19.715-29.831 0-4.64-0.975-9.052-2.73-13.043l0.082 0.208c-26.217-69.496-92.114-118.055-169.37-118.187h-0.016z" />
<glyph unicode="&#xe98e;" d="M785.067 308.907v0c-9.105 0.125-17.273 4.033-23.022 10.22l-0.018 0.020-122.027 128.853c-5.057 5.635-8.149 13.123-8.149 21.333s3.092 15.698 8.175 21.363l-0.026-0.030c5.789 5.782 13.784 9.359 22.613 9.359s16.824-3.576 22.614-9.359v0l99.84-104.107 99.84 104.107c5.789 5.782 13.784 9.359 22.613 9.359s16.824-3.576 22.614-9.359v0c5.782-5.789 9.359-13.784 9.359-22.613s-3.576-16.824-9.359-22.614v0l-122.88-128c-5.692-5.29-13.346-8.536-21.759-8.536-0.15 0-0.301 0.001-0.45 0.003h0.023z" />
<glyph unicode="&#xe98f;" d="M233.387 142.507c-7.939 0.475-14.978 3.984-20.039 9.371l-0.015 0.016c-5.782 5.789-9.359 13.784-9.359 22.613s3.576 16.824 9.359 22.614v0l546.133 552.107c5.699 5.321 13.376 8.588 21.815 8.588 17.673 0 32-14.327 32-32 0-8.44-3.267-16.116-8.606-21.834l0.017 0.019-548.693-552.107c-5.786-5.793-13.78-9.379-22.612-9.387h-0.002z" />
<glyph unicode="&#xe990;" d="M229.973 142.507c-8.833 0.008-16.828 3.594-22.613 9.386v0c-5.799 5.662-9.396 13.558-9.396 22.294 0 0.262 0.003 0.524 0.010 0.785l-0.001-0.039v179.2c0.241 17.489 14.474 31.573 31.997 31.573 0.001 0 0.002 0 0.003 0v0c17.49-0.239 31.576-14.473 31.576-31.997 0-0.151-0.001-0.302-0.003-0.452v0.023-146.347h146.773c0.383 0.017 0.832 0.026 1.283 0.026 17.202 0 31.147-13.945 31.147-31.147 0-0.159-0.001-0.318-0.004-0.477v0.024c0-0.003 0-0.007 0-0.011 0-17.609-14.036-31.939-31.529-32.414l-0.044-0.001h-179.627z" />
<glyph unicode="&#xe991;" d="M783.787 520.96v0c-17.724 0.241-32 14.665-32 32.424 0 0.001 0 0.002 0 0.003v0 146.347h-146.773c-17.673 0-32 14.327-32 32s14.327 32 32 32v0h179.2c0.328 0.013 0.712 0.020 1.098 0.020 8.628 0 16.413-3.607 21.93-9.394l0.011-0.012c5.802-5.857 9.387-13.919 9.387-22.818 0-0.078 0-0.156-0.001-0.234v0.012l-2.133-179.2c-0.45-16.87-13.89-30.458-30.657-31.145l-0.063-0.002z" />
<glyph unicode="&#xe992;" d="M721.92 226.133h-358.4c-23.564 0-42.667 19.103-42.667 42.667s19.103 42.667 42.667 42.667v0h315.733v315.733c0 23.564 19.103 42.667 42.667 42.667s42.667-19.103 42.667-42.667v0-358.4c0-23.564-19.103-42.667-42.667-42.667v0z" />
<glyph unicode="&#xe993;" d="M721.92 226.133c-11.868 0.051-22.584 4.939-30.287 12.793l-357.98 357.98c-6.377 7.412-10.259 17.129-10.259 27.753 0 23.564 19.103 42.667 42.667 42.667 10.624 0 20.341-3.883 27.809-10.307l-0.056 0.047 357.973-357.973c7.795-7.733 12.621-18.45 12.621-30.294 0-23.501-19.001-42.565-42.478-42.666h-0.010z" />
<glyph unicode="&#xe994;" d="M883.627 266.24c-9.088 0.103-17.327 3.655-23.487 9.405l0.020-0.019-244.053 237.653-164.267-157.44c-5.993-5.858-14.201-9.472-23.253-9.472s-17.26 3.614-23.26 9.478l0.006-0.006-288 284.16c-6.188 6.081-10.023 14.539-10.023 23.893 0 18.496 14.994 33.49 33.49 33.49 9.142 0 17.428-3.663 23.471-9.601l-0.005 0.005 264.533-261.12 164.693 157.013c5.926 5.832 14.062 9.433 23.040 9.433s17.114-3.601 23.044-9.437l-0.004 0.004 267.093-259.84c6.241-6.056 10.114-14.523 10.114-23.894 0-18.336-14.828-33.208-33.147-33.28h-0.007z" />
<glyph unicode="&#xe995;" d="M901.973 234.667v0h-187.307c-0.13-0.002-0.284-0.003-0.438-0.003-17.202 0-31.147 13.945-31.147 31.147 0 0.301 0.004 0.601 0.013 0.9l-0.001-0.044c-0.002 0.128-0.003 0.279-0.003 0.43 0 17.437 14.136 31.573 31.573 31.573 0.151 0 0.302-0.001 0.452-0.003h154.43v154.453c0 0.001 0 0.002 0 0.003 0 17.523 14.085 31.757 31.551 31.997h0.023c0.383 0.017 0.832 0.026 1.283 0.026 17.202 0 31.147-13.945 31.147-31.147 0-0.159-0.001-0.318-0.004-0.477v0.024l2.133-186.88c0-0.014 0-0.031 0-0.047 0-8.954-3.582-17.072-9.392-22.998l0.005 0.005c-5.754-5.583-13.612-9.025-22.275-9.025-0.72 0-1.434 0.024-2.141 0.071l0.096-0.005z" />
<glyph unicode="&#xe996;" d="M700.16 212.907h-358.827c-23.564 0-42.667 19.103-42.667 42.667v0 358.4c0 23.564 19.103 42.667 42.667 42.667s42.667-19.103 42.667-42.667v0-315.733h315.307c23.564 0 42.667-19.103 42.667-42.667s-19.103-42.667-42.667-42.667v0z" />
<glyph unicode="&#xe997;" d="M341.333 212.907c-0.074 0-0.161-0.001-0.248-0.001-23.564 0-42.667 19.103-42.667 42.667 0 11.844 4.826 22.561 12.619 30.291l358.403 358.403c7.712 7.668 18.343 12.407 30.080 12.407s22.368-4.74 30.082-12.409l-0.002 0.002c7.795-7.733 12.621-18.45 12.621-30.293s-4.826-22.56-12.618-30.291l-0.003-0.003-357.12-357.973c-7.75-7.905-18.541-12.805-30.475-12.805-0.236 0-0.472 0.002-0.707 0.006h0.036z" />
<glyph unicode="&#xe998;" d="M512 149.333v0c-0.073 0-0.16-0.001-0.247-0.001-11.721 0-22.338 4.726-30.049 12.377l0.003-0.003-253.013 255.573c-9.153 7.872-14.914 19.467-14.914 32.407 0 23.564 19.103 42.667 42.667 42.667 12.94 0 24.535-5.761 32.36-14.858l0.047-0.056 223.147-223.147 223.147 223.147c7.872 9.153 19.467 14.914 32.407 14.914 23.564 0 42.667-19.103 42.667-42.667 0-12.94-5.761-24.535-14.858-32.36l-0.056-0.047-253.013-253.44c-7.474-8.496-18.195-13.982-30.204-14.504l-0.089-0.003z" />
<glyph unicode="&#xe999;" d="M512 149.333c-23.564 0-42.667 19.103-42.667 42.667v0 508.587c0 23.564 19.103 42.667 42.667 42.667s42.667-19.103 42.667-42.667v0-508.587c0-23.564-19.103-42.667-42.667-42.667v0z" />
<glyph unicode="&#xe99a;" d="M512 151.893c-11.868 0.051-22.584 4.939-30.287 12.793l-253.020 253.020c-7.795 7.733-12.621 18.45-12.621 30.293s4.826 22.56 12.618 30.291l253.016 253.016c7.733 7.795 18.45 12.621 30.293 12.621s22.56-4.826 30.291-12.618l0.003-0.003c7.668-7.712 12.407-18.343 12.407-30.080s-4.74-22.368-12.409-30.082l-223.145-223.145 223.147-223.147c7.796-7.733 12.621-18.45 12.621-30.294 0-23.564-19.103-42.667-42.667-42.667-0.087 0-0.174 0-0.262 0.001h0.013z" />
<glyph unicode="&#xe99b;" d="M765.44 405.333h-506.88c-23.564 0-42.667 19.103-42.667 42.667s19.103 42.667 42.667 42.667v0h506.88c23.564 0 42.667-19.103 42.667-42.667s-19.103-42.667-42.667-42.667v0z" />
<glyph unicode="&#xe99c;" d="M930.133 716.373l-108.373 112.64c-5.473 5.43-13.011 8.786-21.333 8.786s-15.86-3.356-21.335-8.788l0.002 0.002c-5.782-5.789-9.359-13.784-9.359-22.613s3.576-16.824 9.359-22.614v0l59.307-62.72h-132.267c-8.661-0.222-16.455-3.763-22.192-9.392l0.005 0.005-470.613-480.427h-97.28c-17.673 0-32-14.327-32-32s14.327-32 32-32v0h108.8c8.549 0.099 16.244 3.676 21.751 9.378l0.009 0.009 469.333 482.133h113.92l-55.893-59.307c-5.585-5.878-9.021-13.844-9.021-22.613s3.436-16.736 9.034-22.627l-0.013 0.014c5.565-5.636 13.229-9.188 21.723-9.386l0.037-0.001c8.549 0.099 16.244 3.676 21.751 9.378l0.009 0.009 112.64 116.907c5.782 5.789 9.359 13.784 9.359 22.613s-3.576 16.824-9.359 22.614v0z" />
<glyph unicode="&#xe99d;" d="M466.773 415.573c-8.549 0.099-16.244 3.676-21.751 9.378l-0.009 0.009-231.68 239.36h-97.28c-17.673 0-32 14.327-32 32s14.327 32 32 32v0h108.8c8.549-0.099 16.244-3.676 21.751-9.378l0.009-0.009 241.92-248.32c5.585-5.878 9.021-13.844 9.021-22.613s-3.436-16.736-9.034-22.627l0.013 0.014c-5.431-5.908-13.143-9.647-21.73-9.813h-0.030zM929.707 229.12l-108.8 112.64c-5.473 5.43-13.011 8.786-21.333 8.786s-15.86-3.356-21.335-8.788l0.002 0.002c-5.585-5.878-9.021-13.844-9.021-22.613s3.436-16.736 9.034-22.627l-0.013 0.014 55.893-58.453h-101.547l-107.093 109.653c-5.425 5.534-12.979 8.964-21.333 8.964s-15.908-3.43-21.329-8.959l-0.005-0.005c-5.682-5.835-9.186-13.815-9.186-22.613s3.504-16.778 9.193-22.62l-0.007 0.007 115.627-119.040c5.516-5.711 13.211-9.287 21.742-9.386h113.938l-60.16-61.867c-5.585-5.878-9.021-13.844-9.021-22.613s3.436-16.736 9.034-22.627l-0.013 0.014c5.595-5.791 13.43-9.387 22.105-9.387 0.029 0 0.058 0 0.087 0h-0.004c0.006 0 0.014 0 0.021 0 8.561 0 16.28 3.602 21.725 9.372l0.014 0.015 112.64 116.907c5.585 5.878 9.021 13.844 9.021 22.613s-3.436 16.736-9.034 22.627l0.013-0.014z" />
<glyph unicode="&#xe99e;" d="M906.667 258.56h-709.547l61.44 61.44c5.331 5.518 8.616 13.042 8.616 21.333s-3.285 15.816-8.624 21.342l0.008-0.009c-5.789 5.782-13.784 9.359-22.613 9.359s-16.824-3.576-22.614-9.359v0l-116.053-114.773c-4.972-5.669-8.006-13.147-8.006-21.333s3.033-15.664 8.038-21.37l-0.032 0.037 116.053-128.427c5.931-6.31 14.331-10.241 23.649-10.241 0.086 0 0.172 0 0.257 0.001h-0.013c8.266 0.069 15.763 3.304 21.35 8.549l-0.017-0.016c5.682 5.835 9.186 13.815 9.186 22.613s-3.504 16.778-9.193 22.62l0.007-0.007-65.28 71.68h713.387c17.673 0 32 14.327 32 32s-14.327 32-32 32v0z" />
<glyph unicode="&#xe99f;" d="M929.28 652.373l-118.613 121.6c-5.518 5.331-13.042 8.616-21.333 8.616s-15.816-3.285-21.342-8.624l0.009 0.008c-5.057-5.635-8.149-13.123-8.149-21.333s3.092-15.698 8.175-21.363l-0.026 0.030 63.147-64h-712.107c-16.014-1.912-28.311-15.413-28.311-31.787s12.297-29.874 28.159-31.772l0.152-0.015h715.52l-63.573-64c-5.784-5.79-9.362-13.785-9.362-22.617 0-17.514 14.071-31.742 31.524-31.997h0.024c1.215-0.175 2.618-0.275 4.044-0.275 6.668 0 12.826 2.185 17.796 5.878l-0.080-0.057 114.347 114.773c5.813 5.795 9.41 13.81 9.41 22.665 0 0.432-0.009 0.862-0.026 1.29l0.002-0.061c-0.082 8.956-3.644 17.064-9.397 23.051l0.011-0.011z" />
<glyph unicode="&#xe9a0;" d="M512 151.893c-0.074 0-0.161-0.001-0.248-0.001-23.564 0-42.667 19.103-42.667 42.667 0 11.844 4.826 22.561 12.619 30.291l223.15 223.15-223.147 223.147c-7.668 7.712-12.407 18.343-12.407 30.080s4.74 22.368 12.409 30.082l-0.002-0.002c7.733 7.795 18.45 12.621 30.293 12.621s22.56-4.826 30.291-12.618l253.016-253.016c7.861-7.709 12.749-18.426 12.8-30.284v-0.010c-0.051-11.868-4.939-22.584-12.793-30.287l-253.020-253.020c-7.709-7.861-18.426-12.749-30.284-12.8h-0.010z" />
<glyph unicode="&#xe9a1;" d="M765.44 405.333h-506.88c-23.564 0-42.667 19.103-42.667 42.667s19.103 42.667 42.667 42.667v0h506.88c23.564 0 42.667-19.103 42.667-42.667s-19.103-42.667-42.667-42.667v0z" />
<glyph unicode="&#xe9a2;" d="M814.507 192l-256 256 247.467 249.173c5.782 5.789 9.359 13.784 9.359 22.613s-3.576 16.824-9.359 22.614v0c-5.789 5.782-13.784 9.359-22.613 9.359s-16.824-3.576-22.614-9.359v0l-248.747-245.76-246.187 250.027c-5.789 5.782-13.784 9.359-22.613 9.359s-16.824-3.576-22.614-9.359v0c-5.782-5.789-9.359-13.784-9.359-22.613s3.576-16.824 9.359-22.614v0l248.747-250.453-256-258.987c-5.057-5.635-8.149-13.123-8.149-21.333s3.092-15.698 8.175-21.363l-0.026 0.030c5.875-5.648 13.812-9.189 22.575-9.386l0.038-0.001c7.893 0.688 14.87 4.146 20.050 9.384l256.003 256.003 256-256c5.875-5.648 13.812-9.189 22.575-9.386l0.038-0.001c8.817 0.106 16.781 3.668 22.619 9.392l-0.005-0.005c5.453 5.728 8.808 13.496 8.808 22.048 0 7.877-2.846 15.090-7.567 20.665l0.039-0.047z" />
<glyph unicode="&#xe9a3;" d="M230.827 136.96c-8.817 0.106-16.781 3.668-22.619 9.392l0.005-0.005c-5.742 5.976-9.305 14.084-9.387 23.024v179.216c0.237 17.577 14.423 31.763 31.977 32h0.023c17.538-0.476 31.573-14.807 31.573-32.415 0-0.004 0-0.008 0-0.012v0.001-146.773h146.773c17.523-0.221 31.727-14.127 32.425-31.509l0.002-0.064c0.002-0.127 0.003-0.277 0.003-0.427 0-17.673-14.327-32-32-32-0.001 0-0.002 0-0.003 0v0l-179.2-2.133z" />
<glyph unicode="&#xe9a4;" d="M794.88 515.413v0c-17.538 0.476-31.573 14.807-31.573 32.415 0 0.004 0 0.008 0 0.012v-0.001 146.773h-146.773c-17.673 0-32 14.327-32 32s14.327 32 32 32v0h179.627c0.473 0.028 1.027 0.045 1.584 0.045 8.348 0 15.848-3.633 21.005-9.404l0.024-0.027c5.796-5.252 9.421-12.808 9.421-21.21 0-0.493-0.013-0.984-0.037-1.471l0.003 0.068v-179.2c0-0.008 0-0.017 0-0.026 0-17.673-14.327-32-32-32-0.45 0-0.898 0.009-1.344 0.028l0.064-0.002z" />
<glyph unicode="&#xe9a5;" d="M793.173 136.96v0l-179.2 2.133c-17.673 0-32 14.327-32 32v0c0.9 17.447 14.938 31.337 32.364 31.998l0.062 0.002h146.773v146.773c0 0.001 0 0.002 0 0.003 0 17.523 14.085 31.757 31.551 31.997h0.023c0.514 0.031 1.115 0.048 1.72 0.048 16.966 0 30.72-13.754 30.72-30.72 0-0.317-0.005-0.633-0.014-0.948l0.001 0.046 2.133-179.2c-0.082-8.956-3.644-17.064-9.397-23.051l0.011 0.011c-6.048-6.818-14.832-11.094-24.614-11.094-0.047 0-0.093 0-0.14 0h0.007z" />
<glyph unicode="&#xe9a6;" d="M229.12 515.413c-17.673 0-32 14.327-32 32v0 179.2c-0.013 0.328-0.020 0.712-0.020 1.098 0 8.628 3.607 16.413 9.394 21.93l0.012 0.011c5.392 5.793 13.060 9.405 21.571 9.405 0.366 0 0.731-0.007 1.095-0.020l-0.053 0.002h179.627c17.673 0 32-14.327 32-32s-14.327-32-32-32v0 0h-146.773v-146.773c0-0.003 0-0.007 0-0.011 0-17.609-14.036-31.939-31.529-32.414l-0.044-0.001z" />
<glyph unicode="&#xe9a7;" d="M843.947 192c-5.318 5.757-12.906 9.35-21.333 9.35s-16.015-3.593-21.315-9.33l-0.018-0.020-69.973-69.12v715.947c0.227 1.411 0.356 3.038 0.356 4.695 0 17.202-13.945 31.147-31.147 31.147-0.125 0-0.25-0.001-0.375-0.002h0.019c-16.836-0.469-30.305-14.229-30.305-31.135 0-0.304 0.004-0.607 0.013-0.909l-0.001 0.044v-711.68l-57.173 61.013c-5.318 5.757-12.906 9.35-21.333 9.35s-16.015-3.593-21.315-9.33l-0.018-0.020c-5.403-5.955-8.711-13.898-8.711-22.613s3.308-16.658 8.736-22.641l-0.025 0.028 110.507-116.48c5.318-5.757 12.906-9.35 21.333-9.35s16.015 3.593 21.315 9.33l0.018 0.020 119.467 119.040c5.811 5.985 9.394 14.161 9.394 23.174 0 0.253-0.003 0.505-0.008 0.757l0.001-0.037c-0.55 7.291-3.532 13.797-8.127 18.796l0.020-0.022z" />
<glyph unicode="&#xe9a8;" d="M448.427 750.507l-107.093 114.773c-5.325 5.821-12.954 9.458-21.433 9.458-0.716 0-1.425-0.026-2.128-0.077l0.094 0.005c-8.549-0.099-16.244-3.676-21.751-9.378l-0.009-0.009-115.627-120.747c-4.972-5.669-8.006-13.147-8.006-21.333s3.033-15.664 8.038-21.37l-0.032 0.037c5.425-5.531 12.977-8.96 21.329-8.96 0.002 0 0.003 0 0.005 0v0c8.432 0.010 16.020 3.616 21.315 9.366l0.019 0.020 61.013 61.44v-711.253c0-16.731 13.563-30.293 30.293-30.293s30.293 13.563 30.293 30.293v0 717.653l60.587-63.573c5.374-5.643 12.944-9.152 21.333-9.152s15.959 3.509 21.322 9.14l0.011 0.012c5.54 5.745 8.952 13.574 8.952 22.199 0 8.407-3.242 16.057-8.544 21.768l0.018-0.020z" />
<glyph unicode="&#xe9a9;" d="M332.8 226.133c-23.564 0-42.667 19.103-42.667 42.667v0 358.4c0 23.564 19.103 42.667 42.667 42.667v0h358.4c23.564 0 42.667-19.103 42.667-42.667s-19.103-42.667-42.667-42.667v0h-315.733v-315.733c0-23.564-19.103-42.667-42.667-42.667v0z" />
<glyph unicode="&#xe9aa;" d="M691.2 226.133c-11.868 0.051-22.584 4.939-30.287 12.793l-357.98 357.98c-6.377 7.412-10.259 17.129-10.259 27.753 0 23.564 19.103 42.667 42.667 42.667 10.624 0 20.341-3.883 27.809-10.307l-0.056 0.047 357.973-357.973c7.795-7.733 12.621-18.45 12.621-30.294 0-23.501-19.001-42.565-42.478-42.666h-0.010z" />
<glyph unicode="&#xe9ab;" d="M119.040 229.973c-0.018 0-0.040 0-0.061 0-9.375 0-17.833 3.927-23.819 10.226l-0.013 0.014c-6.241 6.056-10.114 14.522-10.114 23.893s3.873 17.837 10.106 23.885l0.008 0.008 291.84 288c6.17 5.814 14.508 9.388 23.68 9.388s17.51-3.573 23.697-9.404l-0.017 0.016 166.4-159.147 247.467 240.213c6.131 6.079 14.574 9.835 23.893 9.835 18.745 0 33.941-15.196 33.941-33.941 0-9.426-3.842-17.954-10.046-24.104l-0.002-0.002-271.36-263.253c-6.061-5.883-14.34-9.51-23.467-9.51s-17.406 3.627-23.475 9.519l0.008-0.008-166.4 159.147-268.373-264.533c-6.136-6.137-14.541-10.006-23.849-10.239l-0.044-0.001z" />
<glyph unicode="&#xe9ac;" d="M903.68 439.893v0c-17.538 0.476-31.573 14.807-31.573 32.415 0 0.004 0 0.008 0 0.012v-0.001 156.587h-157.013c-0.262-0.008-0.57-0.012-0.879-0.012-16.992 0-30.848 13.422-31.546 30.242l-0.002 0.063c0 0.001 0 0.002 0 0.003 0 17.759 14.276 32.183 31.977 32.424h189.463c0.203 0.005 0.443 0.008 0.683 0.008 8.622 0 16.402-3.602 21.919-9.383l0.011-0.012c6.646-4.823 11.134-12.271 11.938-20.791l0.009-0.116v-189.013c0-0.030 0-0.066 0-0.101 0-17.909-14.518-32.427-32.427-32.427-0.901 0-1.794 0.037-2.676 0.109l0.116-0.008z" />
<glyph unicode="&#xe9ad;" d="M691.2 226.133c-23.564 0-42.667 19.103-42.667 42.667v0 315.733h-315.733c-23.564 0-42.667 19.103-42.667 42.667s19.103 42.667 42.667 42.667v0h358.4c23.564 0 42.667-19.103 42.667-42.667v0-358.4c0-23.564-19.103-42.667-42.667-42.667v0z" />
<glyph unicode="&#xe9ae;" d="M332.8 226.133c-23.487 0.102-42.488 19.165-42.488 42.666 0 11.844 4.826 22.56 12.618 30.291l357.976 357.976c16.64 17.067 77.227-42.667 60.16-60.16l-357.973-357.973c-7.709-7.861-18.426-12.749-30.284-12.8h-0.010z" />
<glyph unicode="&#xe9af;" d="M765.44 405.333c-0.073 0-0.16-0.001-0.247-0.001-11.721 0-22.338 4.726-30.049 12.377l0.003-0.003-223.147 222.72-223.147-223.147c-7.872-9.153-19.467-14.914-32.407-14.914-23.564 0-42.667 19.103-42.667 42.667 0 12.94 5.761 24.535 14.858 32.36l0.056 0.047 253.013 253.44c7.733 7.795 18.45 12.621 30.293 12.621s22.56-4.826 30.291-12.618l0.003-0.003 253.013-253.44c7.668-7.712 12.407-18.343 12.407-30.080s-4.74-22.368-12.409-30.082l0.002 0.002c-7.661-7.393-18.104-11.947-29.61-11.947-0.090 0-0.18 0-0.27 0.001h0.014z" />
<glyph unicode="&#xe9b0;" d="M512 149.333c-23.564 0-42.667 19.103-42.667 42.667v0 508.587c0 23.564 19.103 42.667 42.667 42.667s42.667-19.103 42.667-42.667v0-508.587c0-23.564-19.103-42.667-42.667-42.667v0z" />
<glyph unicode="&#xe9b1;" d="M304.64 551.253c-0.14-0.002-0.305-0.003-0.471-0.003-8.956 0-17.075 3.584-23.001 9.395l-127.995 127.995c-5.802 6.098-9.375 14.364-9.387 23.464v0.002c0.103 9.088 3.655 17.327 9.405 23.487l-0.019-0.020 128 128c5.989 6.042 14.291 9.783 23.467 9.783 18.245 0 33.036-14.791 33.036-33.036 0-9.070-3.655-17.286-9.572-23.256l0.002 0.002-105.387-104.107 105.387-105.387c5.983-6.016 9.682-14.309 9.682-23.467s-3.699-17.451-9.683-23.468l0.001 0.001c-5.921-5.806-14.040-9.39-22.996-9.39-0.165 0-0.331 0.001-0.496 0.004h0.025zM742.827 31.147l128 128c6.087 5.968 9.861 14.277 9.861 23.467s-3.773 17.499-9.855 23.461l-128.005 128.005c-5.791 5.005-13.393 8.054-21.707 8.054-18.38 0-33.28-14.9-33.28-33.28 0-8.314 3.049-15.917 8.090-21.75l-0.036 0.042 105.387-105.387-105.387-105.387c-5.959-5.948-9.645-14.17-9.645-23.253s3.686-17.306 9.645-23.253l0.001-0.001c5.968-6.087 14.277-9.861 23.467-9.861s17.499 3.773 23.461 9.855l0.005 0.005z" />
<glyph unicode="&#xe9b2;" d="M805.973 216.32h-494.507c-1.947-0.136-4.219-0.213-6.509-0.213-54.904 0-99.413 44.509-99.413 99.413s44.509 99.413 99.413 99.413c2.29 0 4.563-0.077 6.814-0.23l-0.305 0.017h409.6c90.568 1.441 163.433 75.198 163.433 165.973 0 91.675-74.318 165.993-165.993 165.993-0.9 0-1.799-0.007-2.695-0.021l0.135 0.002h-495.36c-18.144 0-32.853-14.709-32.853-32.853s14.709-32.853 32.853-32.853v0h495.36c54.904 0 99.413-44.509 99.413-99.413s-44.509-99.413-99.413-99.413h-410.027c-90.712-1.56-163.65-75.462-163.65-166.4 0-91.913 74.51-166.423 166.423-166.423 0.975 0 1.948 0.008 2.919 0.025l-0.146-0.002h494.507c18.144 0 32.853 14.709 32.853 32.853v0c0.007 0.255 0.011 0.555 0.011 0.856 0 18.234-14.664 33.043-32.842 33.277h-0.022z" />
<glyph unicode="&#xe9b3;" d="M853.333 867.84c-18.048-0.237-32.616-14.805-32.853-32.831v-116.93c-73.297 76.51-176.296 124.060-290.402 124.060-190.937 0-350.777-133.143-391.743-311.651l-0.522-2.702c-0.566-2.266-0.89-4.868-0.89-7.546 0-15.504 10.88-28.466 25.422-31.668l0.215-0.040c1.154-0.201 2.484-0.316 3.84-0.316s2.686 0.115 3.979 0.336l-0.139-0.020c15.555 0.021 28.576 10.849 31.957 25.378l0.043 0.222c34.65 151.408 168.196 262.658 327.727 262.658 96.915 0 184.241-41.058 245.532-106.729l0.181-0.196h-123.307c-18.38 0-33.28-14.9-33.28-33.28s14.9-33.28 33.28-33.28h200.96c18.38 0 33.28 14.9 33.28 33.28v0 198.4c-0.241 18.196-15.047 32.853-33.277 32.853-0.001 0-0.002 0-0.003 0v0z" />
<glyph unicode="&#xe9b4;" d="M899.413 397.653c-1.871 0.373-4.021 0.587-6.221 0.587-16.020 0-29.396-11.319-32.567-26.396l-0.038-0.217c-32.601-154.281-167.625-268.402-329.304-268.402-98.495 0-187.097 42.353-248.589 109.841l-0.241 0.268h128c1.129-0.136 2.437-0.213 3.762-0.213 18.38 0 33.28 14.9 33.28 33.28s-14.9 33.28-33.28 33.28c-1.326 0-2.633-0.078-3.918-0.228l0.156 0.015h-185.173c-18.38 0-33.28-14.9-33.28-33.28v0-191.573c0-18.38 14.9-33.28 33.28-33.28s33.28 14.9 33.28 33.28v0 89.173c71.495-66.2 167.515-106.809 273.021-106.809 193.102 0 354.432 136.035 393.384 317.5l0.475 2.642c0.541 2.261 0.851 4.857 0.851 7.526 0 16.198-11.425 29.727-26.657 32.968l-0.221 0.039z" />
<glyph unicode="&#xe9b5;" d="M826.453 456.96c-17.068-0.474-30.723-14.423-30.723-31.562 0-0.154 0.001-0.308 0.003-0.461v0.023-109.653c0.005-0.387 0.008-0.844 0.008-1.302 0-55.1-44.070-99.907-98.884-101.096l-0.111-0.002h-426.667l65.28 66.987c5.682 5.835 9.186 13.815 9.186 22.613s-3.504 16.778-9.193 22.62l0.007-0.007c-5.425 5.534-12.979 8.964-21.333 8.964s-15.908-3.43-21.329-8.959l-112.645-115.205c-4.891-5.702-7.869-13.17-7.869-21.333s2.977-15.632 7.906-21.377l-0.037 0.044 113.067-128c5.425-5.534 12.979-8.964 21.333-8.964s15.908 3.43 21.329 8.959l0.005 0.005c5.585 5.878 9.021 13.844 9.021 22.613s-3.436 16.736-9.034 22.627l0.013-0.014-60.16 64.853h421.12c89.015 1.902 160.447 74.512 160.447 163.805 0 0.913-0.007 1.823-0.022 2.732l0.002-0.137v109.227c0.002 0.13 0.003 0.284 0.003 0.438 0 17.138-13.655 31.088-30.679 31.561l-0.044 0.001z" />
<glyph unicode="&#xe9b6;" d="M849.92 737.707l-119.040 122.027c-5.473 5.43-13.011 8.786-21.333 8.786s-15.86-3.356-21.335-8.788l0.002 0.002c-5.585-5.878-9.021-13.844-9.021-22.613s3.436-16.736 9.034-22.627l-0.013 0.014 62.72-64.427h-421.12c-88.409-2.366-159.175-74.598-159.175-163.358 0-1.069 0.010-2.137 0.031-3.201l-0.002 0.159v-103.253c0-16.966 13.754-30.72 30.72-30.72s30.72 13.754 30.72 30.72v103.253c-0.009 0.512-0.015 1.116-0.015 1.721 0 55.016 44.123 99.728 98.912 100.678l0.089 0.001h426.667l-62.293-64c-5.682-5.835-9.186-13.815-9.186-22.613s3.504-16.778 9.193-22.62l-0.007 0.007c5.459-5.785 13.179-9.387 21.739-9.387 0.007 0 0.015 0 0.022 0h-0.001c7.692 0.257 14.587 3.47 19.626 8.532l0.001 0.001 113.067 115.2c5.528 5.906 8.932 13.859 8.96 22.608v0.006c0.004 0.199 0.006 0.434 0.006 0.669 0 8.954-3.405 17.113-8.992 23.252l0.025-0.028z" />
<glyph unicode="&#xe9b7;" d="M857.6 284.16c56.32 45.227 49.92 110.507 49.067 174.933-4.433 72.344-33.98 137.041-79.943 186.196l0.157-0.169c-41.147 48.748-91.96 87.953-149.638 114.927l-2.682 1.126c-50.586 17.862-108.92 28.182-169.664 28.182-1.703 0-3.403-0.008-5.102-0.024l0.26 0.002c-9.706 0.763-21.017 1.198-32.429 1.198-102.833 0-197.416-35.319-272.281-94.489l0.924 0.704c-68.267-55.467-110.933-152.747-52.907-232.107 21.383-23.691 49-41.368 80.269-50.468l1.224-0.305c18.797-7.023 40.517-11.087 63.186-11.087 10.837 0 21.457 0.929 31.785 2.711l-1.104-0.158c-3.537-10.842-5.577-23.319-5.577-36.271 0-26.424 8.488-50.866 22.886-70.747l-0.243 0.352c22.59-26.219 55.836-42.716 92.935-42.716 1.228 0 2.452 0.018 3.671 0.054l-0.179-0.004c10.467 0.161 20.416 2.182 29.595 5.745l-0.582-0.199c9.102 4.941 16.631 9.606 23.887 14.636l-0.847-0.556c25.625 11.762 55.593 18.619 87.164 18.619 16.901 0 33.342-1.965 49.109-5.68l-1.446 0.287c44.478-10.756 100.202-20.504 156.894-27.078l6.946-0.655c5.515-0.918 11.869-1.443 18.347-1.443s12.832 0.525 19.024 1.534l-0.677-0.091c14.715 5.382 27.35 13.212 38.047 23.108l-0.074-0.068z" />
<glyph unicode="&#xe9b8;" d="M803.84 261.12c-2.555-21.171-9.050-40.366-18.745-57.512l0.398 0.765c-13.227-24.32-39.253-32.427-58.88-49.92-26.027-24.32-20.48-66.133-18.773-97.707 0.059-0.864 0.092-1.872 0.092-2.888 0-6.68-1.448-13.022-4.048-18.728l0.116 0.283c-5.665-7.486-14.556-12.273-24.564-12.273-5.385 0-10.446 1.385-14.847 3.819l0.158-0.080c-12.581 7.836-22.513 18.865-28.815 31.969l-0.198 0.458c-11.093 20.053-20.053 42.667-32.427 60.16-29.183 34.97-64.633 63.607-104.783 84.444l-1.883 0.889c-19.104 14.044-33.244 33.855-39.918 56.84l-0.189 0.76h4.693c9.102 4.941 16.631 9.606 23.887 14.636l-0.847-0.556c25.625 11.762 55.593 18.619 87.164 18.619 16.901 0 33.342-1.965 49.109-5.68l-1.446 0.287c44.478-10.756 100.202-20.504 156.894-27.078l6.946-0.655c5.219-0.566 11.272-0.889 17.4-0.889 1.233 0 2.463 0.013 3.689 0.039l-0.183-0.003z" />
<glyph unicode="&#xe9b9;" d="M388.693 589.227c0-44.772-36.295-81.067-81.067-81.067s-81.067 36.295-81.067 81.067c0 44.772 36.295 81.067 81.067 81.067s81.067-36.295 81.067-81.067z" />
<glyph unicode="&#xe9ba;" d="M593.067 468.053c0-44.772-36.295-81.067-81.067-81.067s-81.067 36.295-81.067 81.067c0 44.772 36.295 81.067 81.067 81.067s81.067-36.295 81.067-81.067z" />
<glyph unicode="&#xe9bb;" d="M835.84 427.52c0-44.772-36.295-81.067-81.067-81.067s-81.067 36.295-81.067 81.067c0 44.772 36.295 81.067 81.067 81.067s81.067-36.295 81.067-81.067z" />
<glyph unicode="&#xe9bc;" d="M307.627 568.32c-17.665 0.011-31.98 14.334-31.98 32 0 8.619 3.408 16.443 8.95 22.197l-0.010-0.010 114.347 119.893v98.56c0 17.673 14.327 32 32 32s32-14.327 32-32v0-111.36c0.002-0.127 0.003-0.277 0.003-0.428 0-8.413-3.246-16.067-8.554-21.779l0.018 0.020-123.733-131.413c-5.623-4.813-12.984-7.742-21.028-7.742-0.708 0-1.41 0.023-2.107 0.067l0.095-0.005z" />
<glyph unicode="&#xe9bd;" d="M512 438.613c-17.224 0.572-30.969 14.673-30.969 31.983 0 7.627 2.669 14.632 7.123 20.13l-0.047-0.060 72.96 85.333v264.96c0 17.673 14.327 32 32 32s32-14.327 32-32v0-278.613c-0.111-8.187-3.162-15.641-8.141-21.374l0.035 0.041-81.067-93.013c-5.665-5.817-13.573-9.426-22.323-9.426-0.552 0-1.101 0.014-1.646 0.043l0.076-0.003z" />
<glyph unicode="&#xe9be;" d="M754.773 395.52c-17.577 0.237-31.763 14.423-32 31.977v413.463c0 17.673 14.327 32 32 32s32-14.327 32-32v0-413.44c0-17.673-14.327-32-32-32v0z" />
<glyph unicode="&#xe9bf;" d="M912.64 510.72l-59.307 60.16c-7.905 7.75-12.805 18.541-12.805 30.475 0 0.236 0.002 0.472 0.006 0.707v-0.036 85.333c-0.24 48.831-39.881 88.324-88.746 88.324-0.3 0-0.6-0.001-0.9-0.004h-85.287c-0.2-0.003-0.435-0.005-0.671-0.005-11.935 0-22.725 4.9-30.468 12.798l-0.007 0.007-59.733 60.16c-16.057 16.040-38.23 25.96-62.72 25.96s-46.663-9.92-62.721-25.961l0.001 0.001-60.16-59.307c-7.75-7.905-18.541-12.805-30.475-12.805-0.236 0-0.472 0.002-0.707 0.006h-85.297c-48.831-0.24-88.324-39.881-88.324-88.746 0-0.3 0.001-0.6 0.004-0.9v0.046-85.333c0.003-0.2 0.005-0.435 0.005-0.671 0-11.935-4.9-22.725-12.798-30.468l-0.007-0.007-60.16-59.733c-16.040-16.057-25.96-38.23-25.96-62.72s9.92-46.663 25.961-62.721l-0.001 0.001 59.307-60.16c7.905-7.75 12.805-18.541 12.805-30.475 0-0.236-0.002-0.472-0.006-0.707v0.036-85.333c0.24-48.831 39.881-88.324 88.746-88.324 0.3 0 0.6 0.001 0.9 0.004h85.287c0.2 0.003 0.435 0.005 0.671 0.005 11.935 0 22.725-4.9 30.468-12.798l60.167-60.167c16.057-16.040 38.23-25.96 62.72-25.96s46.663 9.92 62.721 25.961l-0.001-0.001 59.733 59.307c7.75 7.905 18.541 12.805 30.475 12.805 0.236 0 0.472-0.002 0.707-0.006h85.297c49.013 0 88.747 39.733 88.747 88.747v0 85.333c-0.003 0.2-0.005 0.435-0.005 0.671 0 11.935 4.9 22.725 12.798 30.468l60.167 60.167c16.041 16.057 25.961 38.23 25.961 62.721 0 24.702-10.092 47.047-26.379 63.137l-0.009 0.009z" />
<glyph unicode="&#xe9c0;" d="M661.76 255.573c-12.711 0.080-23.679 7.46-28.929 18.156l-0.085 0.191-120.747 259.413-120.747-259.413c-5.228-10.98-16.235-18.434-28.982-18.434-4.972 0-9.679 1.134-13.876 3.157l0.192-0.083c-11.047 5.077-18.58 16.047-18.58 28.776 0 5.057 1.189 9.836 3.303 14.074l-0.083-0.183 149.76 321.28c5.815 10.207 16.624 16.977 29.013 16.977s23.198-6.77 28.927-16.813l0.086-0.164 149.76-320.853c1.94-4.006 3.074-8.713 3.074-13.685 0-12.747-7.454-23.754-18.24-28.899l-0.193-0.083c-3.963-2.103-8.655-3.359-13.636-3.413h-0.017z" />
<glyph unicode="&#xe9c1;" d="M608 370.347h-192.427c-17.673 0-32 14.327-32 32s14.327 32 32 32v0h192.427c17.673 0 32-14.327 32-32s-14.327-32-32-32v0z" />
<glyph unicode="&#xe9c2;" d="M938.667 448c0-235.641-191.025-426.667-426.667-426.667s-426.667 191.025-426.667 426.667c0 235.641 191.025 426.667 426.667 426.667s426.667-191.025 426.667-426.667z" />
<glyph unicode="&#xe9c3;" d="M469.333 271.787c-15.657-26.928-44.355-44.753-77.22-44.8h-120.327c-0.231-0.011-0.501-0.017-0.772-0.017-9.661 0-17.493 7.832-17.493 17.493 0 3.314 0.922 6.413 2.523 9.055l-0.044-0.078 122.88 213.333 114.773 198.4c4.954 8.028 13.702 13.297 23.68 13.297s18.726-5.27 23.611-13.178l0.069-0.119 51.627-89.173c7.435-12.739 11.824-28.044 11.824-44.373s-4.389-31.634-12.053-44.798l0.229 0.425-66.987-116.053zM608 320l-37.12-64c-2.967-4.305-4.74-9.633-4.74-15.375 0-15.081 12.226-27.307 27.307-27.307 0.316 0 0.632 0.005 0.945 0.016l-0.046-0.001h148.053c0.268-0.009 0.583-0.015 0.9-0.015 15.081 0 27.307 12.226 27.307 27.307 0 5.742-1.772 11.070-4.8 15.467l0.060-0.092-37.12 64-36.693 64c-4.849 8.046-13.539 13.344-23.467 13.344s-18.618-5.298-23.398-13.221l-0.069-0.123z" />
<glyph unicode="&#xe9c4;" d="M451.84 36.693l-213.333 119.893c-38.026 21.854-63.288 62.132-63.573 108.333v243.667c-0.003 0.299-0.004 0.652-0.004 1.005 0 45.908 24.168 86.171 60.474 108.76l0.543 0.315 210.347 123.733c18.102 10.403 39.801 16.54 62.933 16.54s44.831-6.136 63.558-16.87l-0.625 0.33 213.333-119.893c37.786-22.295 62.898-62.541 63.572-108.704l0.001-0.096 2.133-243.627c0-0.018 0-0.040 0-0.061 0-46.257-24.537-86.784-61.306-109.273l-0.561-0.319-210.347-123.307c-18.28-11.006-40.348-17.517-63.936-17.517-23.292 0-45.102 6.348-63.793 17.409l0.582-0.319z" />
<glyph unicode="&#xe9c5;" d="M446.293 741.973c18.102 10.403 39.801 16.54 62.933 16.54s44.831-6.136 63.558-16.87l-0.625 0.33 187.733-106.24v114.773c-0.724 68.726-56.605 124.16-125.433 124.16-0.002 0-0.005 0-0.007 0h-244.906c-0.002 0-0.004 0-0.007 0-68.829 0-124.71-55.434-125.433-124.091l-0.001-0.069v-115.627z" />
<glyph unicode="&#xe9c6;" d="M563.627 277.333l-42.667 14.933c-2.983 1.115-6.429 1.76-10.027 1.76s-7.044-0.645-10.23-1.826l0.204 0.066-42.667-14.507c-2.927-1.053-6.305-1.662-9.824-1.662-16.495 0-29.867 13.372-29.867 29.867 0 0.284 0.004 0.568 0.012 0.85l-0.001-0.042v44.8c0 0.042 0 0.092 0 0.142 0 7.194-2.406 13.825-6.457 19.134l0.056-0.077-24.747 34.56c-3.878 4.989-6.217 11.341-6.217 18.24 0 13.541 9.012 24.978 21.366 28.639l0.211 0.054 42.667 12.8c6.737 1.928 12.336 6.005 16.151 11.426l0.062 0.094 25.6 36.693c5.444 7.977 14.492 13.145 24.747 13.145s19.302-5.168 24.68-13.042l0.066-0.103 25.173-37.12c3.8-5.594 9.43-9.699 16.016-11.475l0.197-0.045 42.667-13.227c12.386-3.828 21.23-15.176 21.23-28.591 0-6.944-2.37-13.335-6.346-18.408l0.049 0.065-27.307-35.413c-3.755-4.792-6.021-10.906-6.021-17.55 0-0.581 0.017-1.157 0.051-1.729l-0.004 0.079v-42.667c0.020-0.414 0.032-0.898 0.032-1.386 0-16.495-13.372-29.867-29.867-29.867-3.211 0-6.304 0.507-9.204 1.445l0.211-0.059z" />
<glyph unicode="&#xe9c7;" d="M327.68 834.987h369.067c133.373 0 241.493-108.12 241.493-241.493v-290.56c0-133.373-108.12-241.493-241.493-241.493h-369.067c-133.373 0-241.493 108.12-241.493 241.493v290.56c0 133.373 108.12 241.493 241.493 241.493z" />
<glyph unicode="&#xe9c8;" d="M459.947 560.64c0-61.031-49.284-110.507-110.080-110.507s-110.080 49.476-110.080 110.507c0 61.031 49.284 110.507 110.080 110.507s110.080-49.476 110.080-110.507z" />
<glyph unicode="&#xe9c9;" d="M512.853 313.173c0-59.382-72.972-107.52-162.987-107.52s-162.987 48.138-162.987 107.52c0 59.382 72.972 107.52 162.987 107.52s162.987-48.138 162.987-107.52z" />
<glyph unicode="&#xe9ca;" d="M790.187 324.267h-150.187c-17.673 0-32 14.327-32 32s14.327 32 32 32v0h148.907c17.673 0 32-14.327 32-32s-14.327-32-32-32v0z" />
<glyph unicode="&#xe9cb;" d="M806.4 488.107h-225.28c-17.673 0-32 14.327-32 32s14.327 32 32 32v0h225.28c17.673 0 32-14.327 32-32s-14.327-32-32-32v0z" />
<glyph unicode="&#xe9cc;" d="M298.667 29.44c-86.789 48.464-156.502 118.314-203.448 202.583l-1.352 2.644c-5.463 9.339-8.688 20.563-8.688 32.54 0 17.931 7.229 34.173 18.932 45.971l-0.004-0.004 541.013 542.72c11.671 11.734 27.829 18.996 45.682 18.996 12.814 0 24.754-3.741 34.787-10.19l-0.256 0.154c84.592-50.567 153.488-119.19 202.909-200.91l1.465-2.61c5.657-9.468 9.002-20.883 9.002-33.080 0-17.875-7.184-34.071-18.822-45.86l-542.713-542.286c-11.821-11.861-28.173-19.199-46.239-19.199-11.867 0-22.994 3.166-32.583 8.7l0.315-0.168z" />
</font>
</defs>
</svg>
