<?xml version="1.0" standalone="no"?>
<!DOCTYPE svg PUBLIC "-//W3C//DTD SVG 1.1//EN" "http://www.w3.org/Graphics/SVG/1.1/DTD/svg11.dtd">
<svg xmlns="http://www.w3.org/2000/svg">
<metadata>Generated by Fontastic.me</metadata>
<defs>
<font id="font-electro" horiz-adv-x="512">
<font-face font-family="font-electro" units-per-em="512" ascent="480" descent="-32"/>
<missing-glyph horiz-adv-x="512" />

<glyph glyph-name="menu" unicode="&#97;" d="M0 393l0 68 512 0 0-68z m0-171l0 68 512 0 0-68z m0-171l0 68 512 0 0-68z"/>
<glyph glyph-name="list-view-medium" unicode="&#98;" d="M461 180l-282 0c-20 0-38-17-38-38 0-20 18-38 38-38l282 0c20 0 38 18 38 38 0 21-18 38-38 38z m-410 308c-20 0-38-18-38-39 0-20 18-38 38-38 21 0 39 18 39 38 0 21-18 39-39 39z m128-77l282 0c20 0 38 18 38 38 0 21-18 39-38 39l-282 0c-20 0-38-18-38-39 0-20 18-38 38-38z m-128-26c-20 0-38-18-38-38 0-21 18-39 38-39 21 0 39 18 39 39 0 20-18 38-39 38z m410 0l-282 0c-20 0-38-18-38-38 0-21 18-39 38-39l282 0c20 0 38 18 38 39 0 20-18 38-38 38z m-410-102c-20 0-38-18-38-39 0-20 18-38 38-38 21 0 39 18 39 38 0 21-18 39-39 39z m410 0l-282 0c-20 0-38-18-38-39 0-20 18-38 38-38l282 0c20 0 38 18 38 38 0 21-18 39-38 39z m-410-103c-20 0-38-17-38-38 0-20 18-38 38-38 21 0 39 18 39 38 0 21-18 38-39 38z"/>
<glyph glyph-name="transport" unicode="&#99;" d="M486 291c0 7-5 15-7 23-8 23-18 48-26 71-41 0-84 0-125 0 0 18 0 39 0 57-100 0-203 0-302 0 0-11 0-18 0-29 92 0 181 0 274 0 0-69 0-140 0-209-29 0-59 0-88 0-10 46-79 56-104 15-6-3-6-10-8-15-5 0-13 0-16 0 0 23 0 46 0 69-10 0-17 0-28 0 0-34 0-64 0-98 16 0 31 0 46 0 8-35 54-53 87-33 11 8 18 21 23 33 41 0 80 0 121 0 7-25 36-48 69-41 20 6 33 21 41 41 15 0 31 0 46 0 0 21 0 39 0 57-3 20 0 41-3 59z m-358-111c-8 18 5 36 23 39 13 2 28-5 31-15 13-39-41-57-54-24z m230 0c-7 21 6 36 23 39 18 2 34-10 34-28 0-31-46-39-57-11z m98 24c-5 0-11 0-16 0-7 30-46 53-79 35-10-5-18-12-23-20-3-5-5-10-8-15-2 48 0 102 0 151 0 0 0 2 0 2 36 0 69 0 105 0 5-10 8-23 13-36 5-13 10-25 13-36 0-25-8-51-5-81z m-287 181c-44 0-85 0-128 0-3-7 0-18 0-28 43 0 87 0 128 0 0 10 0 21 0 28z m-28-84c0 10 0 18 0 28-28 0-57 0-85 0-2-8 0-18 0-28 28 0 57 0 85 0z"/>
<glyph glyph-name="add-to-cart" unicode="&#100;" d="M443 355c-13-3-18-18-26-31-13-26-23-49-38-72-5-8-15-31-23-33-10-3-26 0-39 0l-38 0c-26 0-56-3-72 5-20 10-23 44-28 69-2 21-7 41-13 59-7 41-10 84-33 108-8 7-18 12-31 15-18 8-53 13-61-5l0-23c10-21 36-11 51-18 16-8 18-31 21-51 7-39 15-77 23-113 5-26 10-49 25-64 13-15 36-26 62-28 36-3 77 0 112 0 11 0 26-3 39 0 13 2 25 20 33 31 23 30 38 66 56 99 3 8 8 16 11 21 0 20-13 33-31 31z m-177-49c5-5 16-21 23-18 5 0 8 5 13 8 18 18 36 36 51 53 3 6 18 18 16 26-3 13-31 5-46 8 0 25-3 48-6 74-10 10-43 10-53 0-3-23-3-49-5-74-18-3-47 7-49-8-3-8 10-20 15-26 13-15 26-28 41-43z m-59-151c-23-3-46-33-28-62 21-33 85-20 77 29-3 18-20 35-49 33z m149 0c-21-3-36-18-36-39 0-23 20-43 44-40 17 0 38 15 38 40 2 24-18 41-46 39z"/>
<glyph glyph-name="arrow-right-categproes" unicode="&#101;" d="M364 298c0-7 0-13 0-20-3-8-8-10-13-16-39-38-77-76-115-112-3-3-6-5-8-8-5-5-8-8-16-10 0 0-2 0-2 0-8 2-13 8-21 13-5 5-12 10-15 18 0 0 0 2 0 2 0 5 5 8 8 13 25 26 51 51 77 77 5 5 10 10 12 13 5 5 8 10 11 17 2 8-3 16-6 21-5 5-10 10-15 13-25 25-51 51-77 77 3 5-2 7-2 10-5 10 0 15 5 18 5 5 8 7 13 12 5 3 7 6 15 8 0 0 3 0 3 0 7-2 10-5 12-10 39-38 75-74 113-110 3-3 5-5 8-8 7-8 13-10 13-18z"/>
<glyph glyph-name="comment" unicode="&#102;" d="M133 104c-2 0-5 0-8 0-12 2-25 0-30 10-5 15 7 28 15 36 10 7 23 18 28 25 3 5 5 11 5 18 0 8-10 16-15 21-18 20-28 46-31 79-7 49 13 82 36 108 23 25 54 46 92 56 41 10 92 5 126-10 33-16 61-39 79-69 18-31 28-75 13-121-13-36-36-64-64-82-31-20-67-33-118-30-5 0-15 2-20 2-3 0-8-5-11-7-28-21-56-31-97-36z m82 56c8 5 15 13 23 13 5 0 13 0 18-3 44-5 82 8 108 23 28 18 56 49 61 92 5 52-21 87-44 108-28 23-64 41-117 38-64 0-110-35-131-79-13-26-13-59-5-87 8-21 18-33 31-46 5-5 10-10 13-15 2-18-6-34-13-44-8-10-16-18-23-26 0 0-3 0-3-2 36 2 59 13 82 28z"/>
<glyph glyph-name="compare" unicode="&#103;" d="M195 385c46 3 99-2 151 0l0-51c23 21 46 49 71 72-23 25-46 51-69 74 0-15 0-36 0-51-54-3-105 2-148 0-41 0-75-18-95-41-31-31-54-97-28-156 13 10 23 23 36 36-13 64 30 115 82 117z m248-43c-8-8-33-28-33-36 0-5 2-10 2-15 0-54-36-98-87-100-43-3-100 2-151 0l0 51c-23-23-49-49-72-74 21-21 44-44 64-64 3-3 6-8 8-8 0 15 0 36 0 51 54 3 105-2 149 0 38 3 69 21 92 44 30 28 53 92 28 151z"/>
<glyph glyph-name="customers" unicode="&#104;" d="M49 283c18 0 33 5 43 13 13 10 16 30 28 43 13 16 36 28 49 44 10 10 18 30 20 48 3 8 0 16 6 18 10 3 20-15 20-20 3-26-15-44-20-64-3-8-3-18 0-26 10-20 46-7 69-5 15 3 33 5 43 0 8-2 10-10 10-18l16 0c0 3 2 8 0 13-5 28-44 26-77 20-15-7-31-12-46-7-5 36 38 66 15 105-5 10-18 20-33 18-13-3-15-16-18-31-8-44-38-54-64-79-13-16-18-44-33-52-8-5-21-5-31-5l0-7c3 0 0-6 3-8z m210-126c-26 0-54 0-77 3-51 5-82 31-133 28 0-2 0-8 0-10l0-5c53 0 84-23 138-28 23-3 54-3 79-3 31 3 67 10 69 38l-15 0c-5-20-38-20-61-23z m-36 59c-3-2-11-5-16-5-5 0-7 0-12 3l0-18c2 0 7 0 12 0 18 0 31 5 39 15 7 10 13 26 13 44 0 10-3 18-6 23-2 7-7 13-12 15-5 5-13 5-21 5-10 0-18-2-25-10-6-5-11-15-11-26 0-10 3-18 8-23 5-5 13-7 20-7 6 0 11 0 13 2 3 3 8 5 11 10 0-7-3-15-6-17-2-3-2-11-7-11z m10 36c-3-2-8-5-10-5-5 0-8 3-11 5-2 3-2 8-2 13 0 5 0 10 2 13 3 2 6 5 11 5 5 0 7-3 10-5 3-3 5-8 5-13 0-5-2-10-5-13z m87 41c-5 3-13 5-20 5-11 0-18-2-26-10-5-5-10-15-10-26 0-10 2-18 7-23 5-5 13-7 21-7 5 0 10 0 13 2 2 3 7 5 10 10 0-7-3-15-5-17-3-3-5-8-10-11-6-2-8-5-13-5-5 0-8 0-13 3l0-18c2 0 8 0 13 0 18 0 30 5 38 15 8 10 13 26 13 44 0 10-3 18-5 23-3 7-8 13-13 15z m-8-41c-2-2-7-5-10-5-5 0-8 3-10 5-3 3-3 8-3 13 0 5 0 10 3 13 2 2 5 5 10 5 5 0 8-3 10-5 3-3 5-8 5-13 0-5-2-10-5-13z m146-2c-5 5-10 7-18 7-15 0-23-10-23-30 0-11 3-18 5-23 6-6 11-8 18-8 8 0 13 2 18 8 5 5 5 12 5 23 3 10 0 17-5 23z m-18-41c-2 0-5 2-5 5 0 2-2 7-2 13 0 5 0 10 2 12 0 3 3 5 5 5 5 0 8-5 8-17 0-11-3-18-8-18z m-51 35c5 6 5 13 5 24 0 10-2 17-5 23-2 5-10 7-18 7-15 0-23-10-23-30 0-11 3-18 5-24 3-5 11-7 18-7 8 0 13 2 18 7z m-23 11c0 2-2 7-2 13 0 5 0 10 2 12 0 3 3 5 5 5 5 0 8-5 8-17 0-13-3-18-8-18-2 0-5 2-5 5z m59 43l-56-102 18 0 56 102z"/>
<glyph glyph-name="dollar" unicode="&#105;" d="M271 472c0-10 0-20 0-30 49-8 82-31 87-87-18 0-35 0-53 0-3 23-11 35-31 38-3-21 0-49 0-72 51-13 102-36 95-107-5-49-49-74-95-77 0-10 0-23 0-33-8 0-15 0-23 0 0 10 0 23 0 33-59 5-92 38-95 100 18 0 36 0 54 0 0-33 15-46 41-54 2 26 0 56 0 82-26 10-56 15-72 36-15 18-23 38-20 61 5 51 43 74 89 80 3 7 0 23 3 30 5 0 13 0 20 0z m-56-125c5-13 21-18 33-21 0 21 0 44 0 64-25 3-43-18-33-43z m56-161c31 0 54 33 36 58-5 8-23 16-36 18 0-25 0-51 0-76z"/>
<glyph glyph-name="favorites" unicode="&#106;" d="M256 429c20 23 49 48 87 54 69 10 118-34 133-85 8-28 8-66-2-95-29-76-100-120-157-171-7-8-17-18-28-26-7-7-18-25-30-25-11 0-18 10-26 20-51 56-123 95-166 159-23 33-44 92-26 146 15 43 51 77 107 79 54 3 82-28 108-56z m138-172c21 21 44 49 49 85 5 43-13 77-41 92-10 5-28 10-46 10-23-2-44-18-56-28-6-5-13-13-21-20-8-8-10-18-23-18-10 0-18 10-23 18-8 7-15 15-21 20-15 13-33 28-58 28-49-2-80-36-82-82-3-33 10-59 25-79 41-59 115-100 159-154 41 46 92 82 138 128z"/>
<glyph glyph-name="grid-view" unicode="&#107;" d="M77 506c-36 0-64-29-64-64 0-36 28-64 64-64 36 0 64 28 64 64 0 35-28 64-64 64z m179 0c-36 0-64-29-64-64 0-36 28-64 64-64 36 0 64 28 64 64 0 35-28 64-64 64z m179-128c36 0 64 28 64 64 0 35-28 64-64 64-36 0-64-29-64-64 0-36 28-64 64-64z m-358-26c-36 0-64-28-64-64 0-36 28-64 64-64 36 0 64 28 64 64 0 36-28 64-64 64z m179 0c-36 0-64-28-64-64 0-36 28-64 64-64 36 0 64 28 64 64 0 36-28 64-64 64z m179 0c-36 0-64-28-64-64 0-36 28-64 64-64 36 0 64 28 64 64 0 36-28 64-64 64z m-358-154c-36 0-64-28-64-64 0-35 28-64 64-64 36 0 64 29 64 64 0 36-28 64-64 64z m179 0c-36 0-64-28-64-64 0-35 28-64 64-64 36 0 64 29 64 64 0 36-28 64-64 64z m179 0c-36 0-64-28-64-64 0-35 28-64 64-64 36 0 64 29 64 64 0 36-28 64-64 64z"/>
<glyph glyph-name="list-view" unicode="&#108;" d="M79 498c-33 0-61-28-61-62 0-33 28-61 61-61 34 0 62 28 62 61-3 36-28 62-62 62z m0-146c-33 0-61-28-61-61 0-34 28-62 61-62 34 0 62 28 62 62-3 35-28 61-62 61z m0-146c-33 0-61-28-61-61 0-34 28-62 61-62 34 0 62 28 62 62 0 33-28 61-62 61z m389-23l-268 0c-21 0-36-15-36-36 0-20 15-38 36-38l268 0c21 0 36 15 36 36 0 20-18 38-36 38z m0 146l-268 0c-21 0-36-15-36-36 0-20 15-36 36-36l268 0c21 0 36 16 36 36 0 21-18 36-36 36z m-268 72l268 0c21 0 36 15 36 35 0 21-15 36-36 36l-268 0c-21 3-36-12-36-33 0-20 15-38 36-38z"/>
<glyph glyph-name="blog-likes" unicode="&#109;" d="M294 493c3 0 8 0 11 0 28-8 48-59 35-97-7-21-23-34-28-49 16-5 34-3 52-3 17 0 38 0 51-5 25-10 43-51 23-74 15-18 10-46-5-59 12-20 0-43-13-54 18-59-67-61-113-66-7 0-15 0-23 0-41 5-72 18-112 20-11-13-31-10-54-10-13 0-28 0-36 3-18 7-15 28-15 56 0 28 0 56 0 84 0 13-3 31 0 41 5 21 25 18 51 18 13 0 25 0 36 0 7 0 12-5 15-7 26 17 23 46 38 71 5 10 13 18 21 26 8 8 18 13 23 23 8 10 10 23 13 36 7 18 5 43 30 46z m0-384c21 0 39 2 57 7 15 3 43 8 46 18 0 6-5 16-3 23 3 11 16 18 18 29 0 7-8 15-8 23 0 10 18 20 18 30 0 8-12 18-12 29 0 10 12 20 12 30 0 8-10 16-15 21-26 7-61 0-90 2-15 3-30 11-33 26-2 25 23 41 31 64 5 20-3 46-15 59 0 0 0 0-3 0 0 0-3 0-3-3-5-25-7-46-18-66-10-18-33-31-46-52-7-10-10-25-15-38-5-13-13-23-20-33-6-5-18-10-18-16-3-7 0-23 0-33 0-33 0-66 0-97 43-3 71-23 117-23z m-202 10c21 0 39 0 59 0 0 49 0 100 0 149-20 0-38 0-59 0 0-49 0-98 0-149z"/>
<glyph glyph-name="phone" unicode="&#110;" d="M410 193c0 0 0-2 0 0 0-10-6-15-11-20-12-13-23-23-38-31-21-10-51-10-74 0-41 15-72 49-98 82-12 18-25 36-35 54-11 20-21 43-23 69-8 49 10 82 33 102 8 8 13 18 25 18 16 0 29-23 34-33 7-10 18-28 18-46-3-26-31-31-39-51-2-8 0-18 3-26 2-10 10-20 15-31 13-18 26-36 44-48 7-5 18-16 30-13 11 2 16 10 21 18 8 5 13 13 20 15 18 5 34-10 44-20 13-11 28-21 31-39z"/>
<glyph glyph-name="returning" unicode="&#111;" d="M276 467c0 8 6 21-2 23l-26 0c-128-7-230-143-174-284 5-13 13-23 16-36-18 0-41 23-54 5 5-15 25-18 41-23 15-5 36-7 48-15-2 10 23 95 6 100-21 5-13-39-18-57-8-5-8 8-11 13-71 126 29 297 174 274z m44 13c-8 0-10 5-20 3 0-6-3-13-3-18 5-3 13-3 18-5 2 7 5 15 5 20z m38-18c-5 3-10 8-18 10-2-7-5-12-7-18 5-2 10-7 18-7 2 5 7 7 7 15z m34-31c0-33-18-71-5-99 23 2 12 38 17 58 90-117-7-314-163-289 0-8-3-10-3-20 131-5 233 84 220 225-2 36-20 66-30 92 12 0 51-26 53-2 3 17-82 28-89 35z m-233-325c5-2 13-5 18-10 0 8 5 10 7 18-5 2-10 8-18 8 0-8-7-8-7-16z m38-18c8 0 10-5 21-5 0 5 2 13 2 18-5 3-13 3-18 5 0-5-5-10-5-18z"/>
<glyph glyph-name="search" unicode="&#112;" d="M456 101l-85 85c28 33 44 74 44 120 0 102-80 184-179 184-100 0-180-82-180-184 0-102 80-184 180-184 38 0 76 12 104 35l88-87z m-379 205c0 90 71 161 159 161 87 0 158-71 158-161 0-90-71-161-158-161-88 0-159 71-159 161z"/>
<glyph glyph-name="shopping-bag" unicode="&#113;" d="M417 393l-71 0 0 18c0 51-41 92-93 92-51 0-94-41-94-92l0-92 36 0 0 36 74 0 0 38-72 0 0 18c0 31 23 54 56 54 31 0 54-23 54-54l0-92 36 0 0 36 41 0 18-256-297 0 15 256 3 0 0 38-36 0-23-330 371 0z"/>
<glyph glyph-name="support" unicode="&#114;" d="M248 477c5 0 11 0 18 0 77-10 123-53 136-128 5-5 13-10 15-17 26-8 36-31 41-59 0-5 0-13 0-18-5-28-15-51-41-59-5-5-10-13-15-16-5-38-26-61-64-66-8 0-21 2-31 0-7-3-13-18-23-15-15 0-28 0-43 0-26 2-31 41-5 48 7 3 46 3 53 0 8-2 13-10 16-15 33-3 59 2 71 20 3 5 11 21 8 28-3 6-10 8-15 16-5 13-3 46-3 69 0 10 0 23 0 36 0 23 0 41 15 46-5 36-20 64-43 82-23 20-54 33-95 31-64-3-105-49-115-113 23-8 15-46 15-85 0-35 8-89-28-84-10 0-15 10-20 18-26 8-36 31-41 59 0 5 0 13 0 18 5 28 15 51 41 59 5 7 13 12 18 17 12 75 59 118 135 128z m-135-145c-3-31-3-70-3-103 0-10-2-23 3-33 5 0 5 0 10 0 8 8 5 20 5 31 0 33 0 71-3 102-2 5-10 5-12 3z m274 0c-3-31-3-70-3-103 0-10-3-23 3-33 5 0 5 0 10 0 5 8 2 20 2 31 0 33 0 71-2 102 0 5-8 5-10 3z m-292-118c0 33 0 69 0 102-31-15-31-89 0-102z m322 0c31 13 31 89 0 102 0-36-2-72 0-102z m-184-98c13-2 41-5 54 0 2 3 2 8 0 13-13 0-67 11-54-13z"/>
<glyph glyph-name="tag" unicode="&#115;" d="M458 424c0 12 3 30-2 41-5 10-13 15-26 18l-146 0c-20 0-28-16-43-29-52-51-105-105-159-158-10-11-26-21-28-39l0-2c0-13 10-21 18-26 46-46 87-87 133-133 10-10 15-18 28-18 15 0 26 13 33 23 57 56 110 110 164 167 10 10 21 17 26 30 2 10 2 26 2 41z m-18-121c-2-10-15-20-25-28-57-56-110-110-169-169-5-5-10-10-16-13-7 0-18 13-23 18-41 41-79 80-120 121-5 5-18 15-18 23 0 5 8 10 13 15 59 59 113 113 171 172 8 7 18 23 31 23 21 2 54 0 80 0l38 0c10 2 28 2 33 0 8-5 5-23 5-36l0-82c0-18 3-31 0-44z m-66 136c-16-3-28-13-31-31-3-23 13-38 33-38 16 0 39 10 39 36 0 20-18 36-41 33z m-10-41c-6 13 2 23 15 26 8 0 15-5 18-13 5-28-28-28-33-13z"/>
<glyph glyph-name="thing-arrow-right" unicode="&#116;" d="M335 291c0 0 0 2 0 2 0 0 0 0 0 3 0 2 0 2 0 5l-87 176c-5 8-12 11-20 8-5-5-8-15-5-23l82-169-82-169c-3-8 0-18 5-20 8-5 15 0 18 7l87 177c2 0 2 3 2 3z"/>
<glyph glyph-name="user" unicode="&#117;" d="M438 106c0-2 0-2 0 0-13-2-23-2-36-2 0 43-18 74-38 97-21 23-54 41-95 43-44 3-80-12-103-35-28-26-48-57-51-108-13 0-23 0-36 0 0 0 0 0 0 3 5 84 49 133 110 161-46 28-74 97-46 156 18 39 59 72 116 72 56 0 94-33 112-72 10-23 16-49 10-77-7-33-28-61-53-79 61-28 102-77 110-159z m-269 279c-8-43 15-74 33-89 28-21 69-21 100-3 28 15 49 46 44 87-3 21-13 39-26 51-18 18-41 31-77 26-38-5-69-33-74-72z"/>
<glyph glyph-name="category-icon" unicode="&#118;" d="M38 132l52 0 0 51-52 0z m103 307l0-51 333 0 0 51z m0-179l333 0 0 51-333 0z m0-128l333 0 0 51-333 0z m-103 128l52 0 0 51-52 0z m0 128l52 0 0 51-52 0z"/>
<glyph glyph-name="mail" unicode="&#119;" d="M486 352c0 20 3 51-2 69-5 15-23 26-41 28l-371 0c-26-2-36-13-41-28-8-20-5-49-5-69l0-138c0-23-3-51 2-67 10-31 36-31 80-31l296 0c18 0 36-2 49 3 13 3 26 13 31 23 8 15 2 46 2 69z m-46-195l-368 0 0 246c0 0 0 3 0 3l366 0 0-249z m-43 182c5 3 18 10 18 13 5 13-3 28 0 38-51-25-105-58-159-89-54 31-108 61-161 92l0-41c53-31 107-61 161-92 44 25 95 54 141 79z"/>
<glyph glyph-name="map-pointer" unicode="&#120;" d="M264 480l-16 0c-43-5-74-18-100-44-23-23-43-58-40-102 2-56 30-97 56-136 28-38 56-74 89-102 54 54 116 115 139 197 36 105-36 179-128 187z m112-151c-2-46-28-82-48-110-16-23-34-44-54-67-5-5-15-20-18-20-3 0-15 15-20 20-31 36-59 72-82 118-13 26-26 64-16 102 13 44 51 80 110 85 36 3 67-10 87-28 26-23 46-54 41-100z m-128 74c-23-5-41-15-48-31-3-5-11-25-11-38 3-59 85-79 121-36 18 21 20 57 5 77-13 15-36 31-67 28z m-12-97c-11 5-21 20-21 33 0 23 18 36 33 39 26 5 49-13 49-39 0-36-38-46-61-33z"/>
<glyph glyph-name="newsletter" unicode="&#121;" d="M343 81c-3 0-3 0 0 0-13 5-20 15-28 25-28 28-56 54-85 80-18-21-35-41-53-64-3-3-13-21-23-18-8 2-6 15-3 25 3 31 5 62 10 90-28 10-56 18-89 28-8 3-26 5-26 15 0 8 15 13 21 18 117 64 233 126 348 190 5 2 20 13 28 10 5-3 0-18 0-26-31-120-59-235-87-353-5-5-8-20-13-20z m-271 187c23-8 46-16 69-24 7-2 20-7 25-7 3 0 8 7 13 10 59 46 110 90 169 136 8 5 21 20 28 20 13-2 3-15 0-20-46-62-89-123-133-185 31-28 62-58 90-87 2-2 2-5 5-5 28 118 59 236 87 351-118-64-236-125-353-189z m123-29c-6-5-18-12-18-18-3-5-3-15-3-20-2-23-5-41-8-64 62 61 113 141 164 210-43-33-92-72-135-108z"/>
<glyph glyph-name="close-remove" unicode="&#122;" d="M448 132l-156 156 153 156-30 31-156-154-154 154-33-31 156-156-156-156 33-31 154 154 156-154z"/>
<glyph glyph-name="payment" unicode="&#65;" d="M128 311c0-15 0-28 10-31 8-2 21 0 34 0l199 0c18 0 36-2 41 11 5 10 3 33 3 46l0 89c0 23 5 54-18 57l-254 0c-20-3-15-34-15-57z m15 151c0 3 0 3 0 0l254 3 0-169-254 0z m174-15c-10 5-28 2-41 2-15 0-33 0-46 0-7-2-18-7-18-20-2-28 34-23 59-23 16 0 34-3 46 0 16 5 18 33 0 41z m-23-26l-23 0c-15 0-33-2-43 3 0 2 0 5 2 7l64 0c6 0 16 3 18-2 3-8-10-8-18-8z m118-202c-2 20-31 20-48 13-3 0-3 5-6 5-7 10-28 7-43 2-15-5-33-18-49-28-5-2-13-10-15-10-5 0-18 5-23 8-8 5-16 15-21 20-12 10-30 15-53 15-26 0-44-7-64-17-8-3-18-8-29-13-5-3-23-8-20-18 3-10 13-3 23 0 10 5 13 5 23 10 15 8 31 15 46 21 18 5 46 0 56-6 16-7 18-17 31-25 21-13 51-16 82-18 10 0 21-3 21-13 0-13-18-13-36-13-28 0-54 0-77 5-10 3-23 6-23-5 0-7 13-10 20-12 23-6 69-8 95-6 15 0 21 6 31 13 15 10 31 21 46 31 13 10 31 26 51 28 8 3 15 0 18-8 0-7-10-18-18-20-43-31-90-62-136-90-10-5-18-12-30-15-16 0-26 5-36 10-21 10-39 21-59 31-10 5-23 15-38 13-11-3-16-8-26-13-3 0-18-5-15-15 0-16 20 0 25 2 5 3 13 10 21 10 10 0 25-10 36-15 12-5 20-10 33-18 20-10 46-28 77-15 15 7 33 18 46 28 30 20 59 38 89 59 18 10 41 23 44 46l0 5c2 26-31 31-49 18z m-95-18c-2-3-7-8-10-8-7-2-18 3-28 3 18 8 36 28 56 31 5 0 13 0 13-6-5-5-18-12-31-20z m64 0c-15-10-30-23-46-31-2 5-5 10-10 16 10 7 21 15 31 23 10 7 23 15 38 10 5-10-7-13-13-18z"/>
<glyph glyph-name="arrow-down-search" unicode="&#66;" d="M425 352l-21 23c-5 8-15 8-23 0l-125-115-125 118c-8 5-16 5-23 0l-21-23c-5-8-5-18 0-23l146-141 8-11c5-7 15-7 23 0l156 149c10 5 10 15 5 23z"/>
<glyph glyph-name="list-view-small" unicode="&#67;" d="M466 168l-410 0c-20 0-38-18-38-39 0-20 18-38 38-38l410 0c20 0 38 18 38 38 0 21-18 39-38 39z m-410 230l410 0c20 0 38 18 38 38 0 21-18 39-38 39l-410 0c-20 0-38-18-38-39 0-20 15-38 38-38z m410-26l-410 0c-20 0-38-17-38-38 0-20 18-38 38-38l410 0c20 0 38 18 38 38 0 21-18 38-38 38z m0-102l-410 0c-20 0-38-18-38-38 0-21 18-39 38-39l410 0c20 0 38 18 38 39 0 20-18 38-38 38z"/>
<glyph glyph-name="cameras" unicode="&#68;" d="M168 10c-4 1-7 2-11 3-26 8-44 32-44 59 0 39 0 78 0 117 0 2 0 3 0 6-2 0-4 0-5 0-16 0-31 0-47 0-30 0-56 23-60 53-1 4-1 8-1 12 0 46 0 92 0 138 0 26 13 45 37 56 3 2 4 3 4 7 0 6 4 10 10 10 17 0 34 0 51 0 7 0 10-4 11-11 10 0 21 0 31 1 2 0 3 2 4 3 3 7 6 14 10 20 8 11 19 18 33 17 28 0 57 0 85 1 24 0 38-15 44-30 2-8 5-12 15-12 22-2 41-13 54-32 7-9 10-19 10-31 0-25 0-50 0-76 0-3 0-4 4-5 15-5 25-15 29-29 3-8 7-11 16-12 25-2 45-15 58-37 3-7 4-15 6-22 0-48 0-96 0-145 0-1-1-3-1-4-3-26-16-43-40-53-5-2-10-2-14-4-97 0-193 0-289 0z m6 256c-1-7-3-10-9-11-20-5-32-21-32-41 0-47 0-94 0-141 0-24 18-42 43-42 91 0 182 0 273 0 4 0 8 0 11 1 20 5 31 21 32 43 0 46 0 91 0 137 0 10-3 18-10 25-5 5-12 9-18 13-9 6-20 7-30 6-9 0-12 2-15 10-2 5-3 10-5 15-5 10-13 16-25 16-18 0-37 0-55 0-4 0-7-1-10-1-6 0-11 1-16 1-13 0-21-6-26-17-2-5-4-11-6-16-2-5-5-8-10-8-17 0-34 0-50 0-5 0-9 3-11 8 0 1-2 2-3 2-9 0-18 0-28 0z m164 51c12 0 24 0 36 0 4 0 5 1 5 5 0 24 0 48 0 72 0 15-6 26-18 34-12 10-26 13-41 12-8 0-11 2-13 9-2 5-4 11-6 16-4 11-13 16-24 16-28 0-55 0-82 0-12 0-21-5-25-17-2-5-4-10-6-15-3-7-6-9-13-9-15 0-30 0-45 0-9 0-11 2-14 10-10 0-20 0-31 0-1-7-2-9-10-11-18-5-31-21-31-39 0-48 0-97 0-145 0-22 19-40 42-40 15 0 31 0 46 0 2 0 3 0 4 0 2 26 15 44 38 56-24 42-24 84 8 122 27 34 65 45 106 32 52-16 75-54 74-108z m-96-41c0 0 0 1 0 1 6 0 12-2 16 0 4 2 5 9 7 14 0 1 1 1 1 1 6 13 15 22 29 25 6 1 12 0 18 0 3 0 4 1 4 4 0 6 0 13-1 20-7 45-49 75-95 68-54-9-84-70-59-119 2-3 4-3 7-3 15 0 30 0 45-1 3 0 9-2 9-4 2-7 6-6 11-6 3 0 5 0 8 0z m106-31c56 1 102-46 102-101 0-54-43-102-102-103-56 0-103 46-102 103 0 59 49 102 102 101z m0-20c-42 1-82-33-82-81-1-45 37-83 82-83 45 0 82 37 82 82 0 46-36 82-82 82z m-154-5c0-8-6-15-15-15-8 0-15 6-15 15 0 9 6 15 15 15 8 1 15-6 15-15z m-127 199c8 0 15-6 15-15 0-8-7-15-16-14-8 0-14 6-14 15 0 8 6 14 15 14z"/>
<glyph glyph-name="drone" unicode="&#69;" d="M412 424c8-4 9-7 7-16-5-22-10-44-14-66-5-19-21-32-40-32-16 0-31 0-47 0 0-7 0-14 0-21 6-1 13-1 19-2 36-7 66-39 71-76 1-3 1-7 1-11 1-28 1-57 1-85 0-6-3-10-9-11-6-1-11 4-12 10 0 4 0 7 0 10-13 0-26 0-40 0 0 7 0 14 0 21 13 0 26 0 40 0 0 1 0 2 0 4 0 17 1 34 0 52 0 33-27 62-60 67-1 0-3 0-4 0-8 1-16 1-22-7-6-9-17-13-28-13-12 0-24 0-36 0-15 0-26 7-35 18-1 1-3 2-4 2-34 3-65-18-74-50-2-6-3-13-4-20 0-16 0-33 0-49 0-1 1-2 1-4 13 0 27 0 40 0 0-7 0-13 0-20-13 0-27 0-41 0 0-4 0-7 0-11 0-6-3-9-9-10-5 0-9 3-10 8-1 2-1 4-1 6 0 26 0 52 0 77 0 46 30 83 76 92 5 1 11 1 17 2 0 7 0 13 0 21-4 0-8 0-12 0-11 0-23 0-34 0-22 0-37 12-42 34-3 14-7 29-9 44-1 3-3 4-6 4-29 0-57 0-86 0-2 0-4 0-6 0 0 6 0 13 0 20 30 0 61 0 92 0 2 9 7 12 14 10 4-2 6-5 7-9 4-21 9-41 13-62 1-4 2-8 4-12 4-6 10-9 18-9 72 0 145 0 217 0 9 0 17 5 19 13 4 16 8 32 11 49-29 0-58 0-87 0 0 7 0 13 0 20 31 0 61 0 89 0 5 5 8 8 11 12 1 0 3 0 4 0z m-197-114c0-7 0-12 0-18 0-13 10-23 23-23 12-1 24-1 36 0 4 0 9 2 13 4 10 6 14 23 9 37-26 0-53 0-81 0z m41-236c-20 0-40 0-59 0-14-1-23 9-23 22 0 23 0 45 0 67 0 15 8 24 23 23 8 0 13 2 16 9 1 2 2 4 3 5 2 5 6 7 11 7 19-1 38-1 58 0 5 0 9-2 11-7 0 0 0 0 1-1 4-9 10-14 22-13 10 1 19-9 19-20 0-23-1-47 0-71 0-11-9-22-22-21-20 0-40 0-60 0z m-62 20c41 0 82 0 123 0 0 24 0 48 0 72-6 0-12 0-17 0-4 0-7 2-10 5-2 4-4 8-7 12-1 2-3 3-5 3-10 0-20 0-30 0-6 0-13 2-17 0-4-3-6-9-9-14 0 0 0 0 0 0-2-4-6-6-11-6-5 0-11 0-17 0 0-24 0-48 0-72z m318 318c0-7 0-13 0-19-27 0-53 0-81 0 1 5 3 11 4 17 0 1 2 2 3 2 24 0 49 0 74 0z m-308 0c0-7 0-13 0-20-23 0-47 0-71 0-1 7-3 13-4 20 25 0 50 0 75 0z m52-307c-18 0-31 13-31 31 0 16 14 30 31 30 17 0 31-14 31-31 0-17-14-31-31-30z"/>
<glyph glyph-name="gamepad" unicode="&#70;" d="M60-6c-6 2-12 2-18 5-20 8-31 24-37 44-6 19-6 37-4 56 6 49 22 95 47 138 13 24 29 46 50 64 12 11 25 19 41 21 15 1 30-1 45-7 9-4 19-9 28-13 11-6 22-9 35-10 0 6 1 12 2 18 7 39 28 67 62 87 21 12 44 21 66 30 17 7 33 14 47 25 11 9 16 20 16 33 1 7 4 11 11 11 6 0 10-4 9-11 0-23-11-40-29-53-17-12-36-19-55-26-21-9-43-18-62-31-27-19-43-44-46-77-1-1-1-2-1-3 0-1 1-1 1-4 8 3 16 4 23 7 11 5 22 10 32 15 15 7 31 10 47 9 16 0 28-8 40-17 24-21 42-46 57-74 20-35 34-73 41-113 2-11 2-23 3-34 0-2 1-4 1-5 0-1 0-2 0-3 0-3 0-5-1-7-2-10-3-21-6-30-7-20-19-35-40-42-5-1-9-2-13-2-1 0-2 0-3 0-2 0-3 0-4 0-23 1-44 7-63 17-21 11-40 26-58 40-14 11-27 21-43 29-13 6-26 8-39 4-13-3-24-10-34-17-18-14-36-28-54-41-21-15-44-26-69-30-7-1-15-2-22-2-1-1-2-1-3-1z m432 91c-1 6-2 18-4 30-6 36-19 71-37 103-12 23-26 44-44 62-18 19-38 27-63 19-11-4-21-9-32-14-14-7-29-12-46-13-23-2-45 2-66 13-8 5-16 9-24 12-24 8-46 7-65-11-12-12-23-24-33-39-32-49-53-103-57-162-2-20 1-39 13-55 7-10 16-16 28-15 11 1 23 2 34 5 25 6 45 21 65 37 16 12 32 25 49 36 30 19 61 19 91 0 11-7 22-15 33-23 18-14 35-28 55-39 18-10 38-16 59-16 13 0 23 4 30 14 11 15 14 32 14 56z m-339 74c0-11 0-20 0-31-10 0-19 0-30 0 0 10 0 20 0 31-10 0-20 0-30 0 0 10 0 20 0 30 10 0 20 0 30 0 0 10 0 20 0 30 10 0 20 0 30 0 0-10 0-19 0-30 10 0 20 0 31 0 0-10 0-20 0-30-10 0-20 0-31 0z m185-11c-11 0-20 10-20 21-1 10 9 20 20 20 11 0 20-10 20-20 0-11-9-21-20-21z m102 20c0-11-9-20-20-20-11 0-21 10-20 21 0 11 9 20 20 20 11 0 20-9 20-21z m-61-20c11 0 20-9 20-20 0-11-9-21-20-21-11 0-21 10-21 21 1 11 10 20 21 20z m0 41c-11 0-20 9-21 20 0 11 10 21 21 21 11 0 20-9 20-20 0-11-9-21-20-21z"/>
<glyph glyph-name="headphones" unicode="&#71;" d="M512 162c-1-7-1-15-3-23-4-22-13-41-32-54-5-3-12-4-16-7-4-4-7-10-11-13-9-9-20-11-32-6-12 5-18 14-19 27 0 52 0 103 0 155 0 11 6 20 17 26 2 1 3 2 2 5-4 29-15 56-33 80-27 33-62 54-105 61-48 7-91-5-128-36-32-26-51-60-57-100 0-1-1-2-1-3-1-3 0-6 3-8 11-5 16-15 16-26 0-51 0-101 0-152 0-13-6-23-18-29-12-5-23-3-33 5-2 2-4 4-5 7-2 6-7 7-12 9-18 8-29 22-36 40-14 36-12 72 10 105 7 12 18 20 31 24 2 0 3 2 4 3 3 7 8 13 15 16 3 1 4 3 5 6 8 74 64 140 143 156 58 13 111-1 158-39 34-29 54-65 62-109 2-8 3-14 11-18 4-2 7-8 10-12 1-1 2-3 3-3 22-7 35-23 43-44 5-12 7-24 7-37 0-1 1-2 1-3 0-1 0-2 0-3z m-72 2c0 25 0 50 0 75 0 6-2 10-7 11-7 2-14-3-14-11 0-38 0-75 0-113 0-12 0-25 0-38 0-4 2-8 5-10 4-2 8-2 11 0 4 2 5 6 5 10 0 25 0 50 0 76z m-368 0c0-26 0-51 0-76 0-2 1-6 2-8 3-3 7-5 11-3 5 2 8 5 8 11 0 50 0 101 0 151 0 7-5 12-11 12-6-1-10-5-10-12 0-26 0-50 0-75z m-21-65c0 43 0 86 0 129-7-3-12-8-16-14-19-27-19-73-1-100 5-6 10-11 17-15z m410 0c2 1 3 2 5 3 8 5 13 13 18 22 7 17 9 34 7 52-2 14-6 28-15 40-4 5-9 9-15 12 0-43 0-86 0-129z"/>
<glyph glyph-name="laptop" unicode="&#72;" d="M512 71c0-12 0-23 0-35 0-1-1-1-1-2-2-10-10-17-20-17-157 0-313 0-470 0-11 0-21 8-21 19 0 15-2 30 4 45 10 28 18 57 27 86 2 6 4 11 1 17 0 2 0 4 0 6 0 87 0 175 0 262 0 15 8 23 23 23 134 0 268 0 402 0 2 0 4 0 6 0 11-3 17-10 17-23 0-85 0-170 0-256 0-6-2-12-2-18-1-1 0-2 0-3 3-11 7-21 10-32 8-24 16-48 24-72z m-459 383c0-89 0-178 0-267 2 0 4 0 6 0 32 0 64 0 95 0 100 0 200 0 299 0 5 0 6 1 6 6 0 85 0 171 0 256 0 2 0 4 0 5-136 0-270 0-406 0z m435-374c-9 29-17 56-26 84 0 1-3 2-4 2-12 1-23 0-35 0-1 0-2 0-4 0 2-9 4-18 7-27 2-10-2-15-12-15-105 0-211 0-316 0-9 0-14 5-12 15 3 9 5 18 7 27-2 0-4 0-5 0-11 0-22 0-32 1-4 0-6-2-7-6-8-25-16-50-24-75 0-2-1-4-1-6 155 0 309 0 464 0z m3-20c-157 0-313 0-470 0 0-8 0-15 0-22 157 0 313 0 470 0 0 7 0 14 0 22z m-88 85c-2 5-4 10-4 15-1 6-3 7-8 7-90-1-180-1-270-1-1 0-2 1-3 0-1 0-3-1-4-2-1-6-3-12-5-19 98 0 195 0 294 0z"/>
<glyph glyph-name="printer" unicode="&#73;" d="M396 107c0-31 0-60 0-90-93 0-186 0-280 0 0 30 0 59 0 90-2 0-3 0-5 0-18 0-36-1-54 0-14 0-26 8-30 22 0 3 0 5 0 8 0 60 0 119-1 179 0 17 15 31 31 30 20 0 39 0 59 0 0 43 0 86 0 130 93 0 186 0 280 0 0-43 0-86 0-130 2 0 4 0 5 0 19 0 37 0 55 0 16 0 29-13 30-29 0-60 0-120 0-179 0-18-14-31-31-31-18-1-36 0-53 0-2 0-4 0-6 0z m-280 109c94 0 187 0 280 0 0-30 0-60 0-90 19 0 38 0 57 0 9 0 13 4 13 13 0 58 0 116 0 174 0 9-4 14-14 14-131 0-262 0-393 0-10 0-13-5-13-14 0-58 0-115 0-173 0-10 3-14 13-14 17 0 35 0 52 0 2 0 3 1 5 1 0 30 0 59 0 89z m260-19c-80 0-160 0-240 0 0-54 0-107 0-160 80 0 160 0 240 0 0 53 0 106 0 160z m-240 150c80 0 160 0 240 0 0 36 0 73 0 109-80 0-160 0-240 0 0-36 0-73 0-109z m299-70c0-11-8-20-19-20-11 0-20 9-20 19 0 11 9 20 20 20 11 0 19-8 19-19z m-179-111c27 0 53 0 79 0 6 0 9-2 11-6 1-5-1-9-5-11-2-1-4-2-6-2-53 0-105 0-158 0-7 0-11 4-11 10 0 6 4 9 12 9 26 0 52 0 78 0z m0-99c-27 0-53 0-79 0-7 0-11 4-11 11 1 4 4 8 8 8 2 0 4 0 6 0 51 0 101 0 152 0 2 0 3 0 4 0 6 0 10-4 10-10 0-5-4-9-10-9-17 0-33 0-50 0-10 0-20 0-30 0z m-20 59c19 0 39 0 58 0 8 0 11-3 11-9 1-6-4-10-11-10-39 0-78 0-117 0-4 0-8 2-10 6-2 4-1 8 3 11 2 1 5 2 7 2 20 0 40 0 59 0z"/>
<glyph glyph-name="smartphones" unicode="&#74;" d="M271 501c4-2 9-3 13-6 8-5 13-14 13-24 0-23 0-46 0-70 0 0 0-1 0-2-7 0-13 0-20 0 0 2 0 4 0 6 0 21 0 41 0 62 0 11-3 14-14 14-66 0-132 0-198 0-10 0-14-4-14-14 0-110 0-221 0-331 0-10 4-14 14-14 44 0 89 0 133 0 2 0 4 0 6 0 0-7 0-13 0-20-1 0-3 0-5 0-45 0-89 0-134 0-19 0-29 8-34 27 0 0 0 0 0 0 0 115 0 230 0 345 1 3 2 6 3 10 5 10 13 15 23 17 71 0 143 0 214 0z m210-312c0-57 0-113 0-169 0-15-11-27-22-30-4 0-8-1-11-1-67 0-133 0-199 0-17 0-28 8-32 22-1 3-2 7-2 11 0 111 0 223 0 335 0 18 14 32 33 32 67 0 134-1 201 0 19 0 32-15 32-32 0-56 0-112 0-168z m-20 0c0 55 0 111 0 166 0 10-3 13-13 13-66 0-132 0-198 0-11 0-15-3-15-14 0-110 0-220 0-330 0-11 4-15 14-15 66 0 132 0 198 0 11 0 14 3 14 14 0 56 0 111 0 166z m-369 5c38 0 75 0 112 0 0-7 0-14 0-21-1 0-3 0-5 0-38 0-76 0-114 0-10 0-13 4-13 14 0 87 0 173 0 260 0 10 3 13 13 13 53 0 105 0 158 0 9 0 13-3 13-13 0-14 0-29 0-43 0-2 0-3 0-5-7 0-13 0-20 0 0 14 0 27 0 41-48 0-96 0-144 0 0-82 0-164 0-246z m87-46c0-9-7-15-15-15-8 0-15 6-15 15 0 9 6 15 15 15 9 0 15-6 15-15z m77 56c0 44 0 87 0 130 0 10 3 13 13 13 53 0 106 0 159 0 9 0 12-3 12-12 0-87 0-175 0-262 0-9-3-12-12-12-53 0-106 0-159 0-9 0-13 3-13 13 0 43 0 87 0 130z m21 123c0-82 0-164 0-246 48 0 95 0 143 0 0 83 0 164 0 246-48 0-95 0-143 0z m71-307c-8 0-15 7-15 15 0 8 7 15 15 15 9 0 15-6 15-15 0-8-6-15-15-15z"/>
<glyph glyph-name="smartwatch" unicode="&#75;" d="M92 128c0 78 0 156 0 234 0 1 1 2 1 3 1 11 4 22 12 30 9 9 19 17 29 25 8 6 14 13 16 23 3 10 5 19 7 29 1 11 7 18 17 21 9 3 18 5 28 6 7 2 15 2 22 2 15 0 29 0 44 0 7 0 14 0 21-2 10-1 20-3 30-7 8-2 13-8 15-17 2-8 4-16 6-24 2-11 6-22 15-29 8-5 14-11 21-16 12-10 20-22 22-36 1-7 1-15 2-22 11-2 17-9 20-19 0-15 0-30 0-45-3-10-9-17-21-18 0-10 0-19 0-29 0-1 2-2 2-2 7-3 8-5 8-12 0-19 0-37 0-56 0-9-1-11-10-15 0-7 0-15 0-22 0-13-4-26-13-35-9-9-20-18-30-26-7-5-12-12-15-21-2-10-5-19-6-28-2-13-9-20-20-24-13-5-26-6-40-6-19-1-39-1-58 0-14 0-28 1-41 6-9 4-16 9-19 18-2 8-3 16-5 24-2 12-6 23-16 30-7 6-13 11-20 16-10 8-17 17-20 28-2 6-3 11-4 16z m20 117c0-37 0-74 0-111 0-7 2-14 5-21 9-15 22-22 39-22 59 0 118 0 177 0 4 0 9 1 13 1 17 3 33 20 33 38 0 48 0 97 0 145 0 2 0 3-1 5-5 14-6 28-3 42 1 6 3 11 4 16 1 7 0 15 0 22-1 22-18 39-40 39-62 0-124 0-186 0-4 0-7-1-11-2-18-5-30-21-30-41 0-37 0-74 0-111z m219 174c-10 15-11 32-16 48-1 5-3 8-7 9-10 1-20 4-29 4-26 0-51 0-76-1-7 0-14-3-22-5-1 0-3-2-4-4-2-9-4-17-6-26-3-8-6-17-9-25 56 0 112 0 169 0z m-169-348c3-7 6-14 8-21 2-8 5-17 6-25 1-6 4-10 9-10 12-2 23-5 34-5 22 0 44 0 66 1 8 0 16 3 24 5 2 0 5 3 5 5 3 9 5 18 7 27 2 8 6 15 8 23-55 0-111 0-167 0z m236 256c-6-8-6-36 1-41 2 4 1 38-1 41z m-111-82c0-22-19-40-41-40-22 0-41 18-41 40 0 23 19 41 41 41 22 0 41-18 41-41z m-42-20c12-1 21 8 21 19 1 12-8 22-20 22-11 0-20-9-21-20 0-11 9-21 20-21z m-40-31c17 0 31-14 30-31 0-17-14-30-30-30-17 0-31 14-31 31 0 17 14 30 31 30z m0-20c-6 0-11-5-11-11 0-5 5-10 11-10 6 0 10 5 10 10 0 6-4 10-10 11z m51 153c0 17 14 31 31 31 16 0 30-14 30-31 1-16-14-30-30-30-17 0-31 13-31 30z m31-10c6 0 10 4 10 10 0 6-5 11-10 11-6 0-11-5-10-11 0-6 4-10 10-10z m10-72c0 17 14 31 31 31 17 0 30-14 30-31 0-17-14-30-30-31-17 0-31 14-31 31z m21 1c0-6 4-11 10-11 5 0 10 4 10 10 0 6-4 10-10 11-6 0-10-5-10-10z m-154 30c17 0 30-14 30-31 0-16-14-30-30-30-16-1-31 14-31 30 0 17 14 31 31 31z m0-20c-6 0-11-5-11-11 0-5 5-10 11-10 5 0 10 4 10 10 0 6-4 11-10 11z m21 66c0 14 11 26 25 25 14 0 25-11 25-25 0-14-11-25-25-25-14 0-25 11-25 25z m97-128c14 0 25-12 25-26 0-13-12-25-25-25-14 0-26 11-26 26 1 14 12 25 26 25z m51 10c8 0 15-7 15-15 0-8-7-16-15-15-8 0-15 7-15 15 0 8 7 15 15 15z m-174 93c-9 0-15 6-15 15 0 8 7 15 15 15 8 0 15-7 15-15 0-8-7-15-15-15z"/>
<glyph glyph-name="speaker" unicode="&#76;" d="M102 500c103 0 205 0 308 0 1 0 2 0 2-1 17-2 29-16 29-33 0-147 0-294 0-441 0-19-15-34-33-35-101 0-203 0-304 1-5 0-11 1-16 4-12 7-17 19-17 33 0 145 0 289 0 434 0 2 0 3 0 5 0 11 5 20 14 26 5 3 11 5 17 7z m-8-255c0-72 0-145 0-217 0-12 3-15 14-15 99 0 197 0 296 0 11 0 15 4 15 15 0 145 0 289 0 434 0 12-4 16-16 16-98 0-196 0-294 0-12 0-16-4-16-16 1-72 1-145 1-217z m162-208c-63-1-116 51-116 115 0 64 51 116 116 116 64 0 116-52 116-116 0-63-52-115-116-115z m0 22c52 1 94 42 93 93 0 54-45 94-93 93-53 0-93-41-93-95 0-50 42-91 93-91z m0 256c-39 0-69 31-69 70 0 38 31 69 69 69 38 0 70-32 69-71 0-40-34-69-69-68z m0 23c26 0 47 20 47 46 0 26-21 47-47 47-25 0-46-21-46-46 0-27 19-47 46-47z m139 104c0-6-5-11-11-11-6 0-12 5-12 11 0 6 6 12 11 12 6 0 12-5 12-12z m0-394c0-6-5-11-11-11-7 0-12 5-12 11 0 6 6 11 12 11 6 0 11-5 11-11z m-267 383c-7 0-11 5-11 12 1 6 6 11 12 11 7-1 11-6 11-13-1-6-6-10-12-10z m12-383c0-7-5-11-12-11-6 0-11 5-11 11 0 6 5 11 12 11 6 0 11-5 11-11z m116 58c-25 0-46 21-46 46 0 25 21 46 46 46 26 0 46-20 46-45 0-26-20-47-46-47z m0 23c13 0 23 10 23 23 0 13-10 24-23 24-13 0-24-11-23-24 0-13 10-23 23-23z m-23 255c0 13 10 23 23 23 13 0 23-10 23-23 0-13-10-23-23-23-13 0-23 10-23 23z"/>
<glyph glyph-name="tvs" unicode="&#77;" d="M0 102c0 109 0 218 0 328 171 0 341 0 512 0 0-2 0-4 0-6 0-105 0-211 0-316 0-2 0-4 0-6-3 0-5 0-7 0-166 0-332 0-498 0-3 0-5 0-7 0z m20 308c0-3 0-5 0-7 0-91 0-183 0-275 0-6 0-6 6-6 154 0 307 0 460 0 6 0 6 0 6 6 0 92 0 184 0 275 0 7 0 7-6 7-153 0-307 0-460 0-2 0-3 0-6 0z m235-329c47 0 94 0 140 0 2 0 4 0 6 0 5-1 9-5 9-10 0-6-4-9-10-10-1 0-2 0-3 0-94 0-188 0-282 0-8 0-11 2-13 8-1 5 2 11 8 12 2 0 4 0 6 0 46 0 93 0 139 0z m-50 179c0 20 0 41 0 62 0 2 1 5 2 7 3 4 7 2 10 0 25-15 50-29 75-44 11-6 23-13 34-19 6-4 6-9 0-13-36-21-73-42-109-63-7-5-12-2-12 7 0 21 0 42 0 63z"/>
</font>
</defs>
</svg>
